.
Авторизация | Регистрация
Хочешь лучшие торренты? Добавь свой email!
Добавить

Торрент скачать бесплатно

  • support: webmaster@btracker.org
» » Горы и камни / The Ottoman Lieutenant (2017) BDRip [H.264 / 1080p-LQ] торрент скачать бесплатно


    Горы и камни / The Ottoman Lieutenant (2017) BDRip [H.264 / 1080p-LQ] торрент скачать бесплатно

    Опубликовал: Админ | Дата: 31-05-2018, 05:00 | .torrent скачали: 0

    Горы и камни / The Ottoman Lieutenant (2017) BDRip [H.264 / 1080p-LQ]Производство: Турция, США/Eastern Sunrise Films, Y Production
    Жанр: Драма, Военный
    Режиссер: Джозеф Рубин

    Актеры
    Михил Хаушман, Гера Хилмарсдоттир, Джош Хартнетт, Бен Кингсли, Халук Бильгинер, Аффиф Бен Бадра, Пол Баррет, Джесика Тернер, Питер Хоскин, Сельчук Ёнтем, Элишка Слански, Хасан Сай

    Описание

    История любви между идеалистичной медсестрой-американкой и турецким офицером на фоне Первой мировой войны.

    Возраст: 16+ (зрителям, достигшим 16 лет)
    Рейтинг MPAA: R (лицам до 17 лет обязательно присутствие взрослого)
    Релиз от: Heisenberg | NNMClub
    Продолжительность: 01: 50: 35
    Качество: BDRip 1080p
    Перевод: Дублированный (студия Пифагор)
    Субтитры: Английские (full, SDH, SDH Colored)
    Видео: H.264/AVC, 1920x804, (2.40: 1), ~5270 kbps, 23.976 fps
    Аудио: AC3, 6 ch, 384 kbps - Русский

    General
    Unique ID : 187703480004801027898657879706245633171 (0x8D36601265424BDAD36CF5017C5D9493)
    Complete name : S: The Ottoman Lieutenant.2017.BDRip.1080p.NNMClub.mkv
    Format : Matroska
    Format version : Version 4/Version 2
    File size : 4.37 GiB
    Duration : 1 h 50 min
    Overall bit rate : 5 653 kb/s
    Movie name : The Ottoman Lieutenant | NNMClub
    Encoded date : UTC 2018-05-29 15: 54: 00
    Writing application : mkvmerge v23.0.0 (\'The Bride Said No\') 64-bit
    Writing library : libebml v1.3.6 + libmatroska v1.4.9
    Cover : Yes
    Attachments : Cover.jpg/x264.log
    Video
    ID : 1
    Format : AVC
    Format/Info : Advanced Video Codec
    Format profile : High@L4.1
    Format settings : CABAC/5 Ref Frames
    Format settings, CABAC : Yes
    Format settings, ReFrames : 5 frames
    Codec ID : V_MPEG4/ISO/AVC
    Duration : 1 h 50 min
    Bit rate : 5 270 kb/s
    Width : 1 920 pixels
    Height : 804 pixels
    Display aspect ratio : 2.40: 1
    Frame rate mode : Constant
    Frame rate : 23.976 (24000/1001) FPS
    Color space : YUV
    Chroma subsampling : 4: 2: 0
    Bit depth : 8 bits
    Scan type : Progressive
    Bits/(Pixel*Frame) : 0.142
    Stream size : 4.07 GiB (93%)
    Writing library : x264 core 155 r2901 7d0ff22
    Encoding settings : cabac=1/ref=5/deblock=1: -2: -2/analyse=0x3: 0x133/me=umh/subme=10/psy=1/psy_rd=1.00: 0.00/mixed_ref=1/me_range=32/chroma_me=1/trellis=2/8x8dct=1/cqm=0/deadzone=21, 11/fast_pskip=0/chroma_qp_offset=-2/threads=6/lookahead_threads=1/sliced_threads=0/nr=0/decimate=1/interlaced=0/bluray_compat=0/constrained_intra=0/bframes=12/b_pyramid=2/b_adapt=2/b_bias=0/direct=3/weightb=1/open_gop=0/weightp=2/keyint=240/keyint_min=23/scenecut=40/intra_refresh=0/rc_lookahead=50/rc=2pass/mbtree=0/bitrate=5270/ratetol=1.0/qcomp=0.60/qpmin=0/qpmax=69/qpstep=4/cplxblur=20.0/qblur=0.5/vbv_maxrate=50000/vbv_bufsize=62500/nal_hrd=none/filler=0/ip_ratio=1.40/pb_ratio=1.30/aq=1: 1.00
    Language : English
    Default : Yes
    Forced : No
    Audio
    ID : 2
    Format : AC-3
    Format/Info : Audio Coding 3
    Codec ID : A_AC3
    Duration : 1 h 50 min
    Bit rate mode : Constant
    Bit rate : 384 kb/s
    Channel(s) : 6 channels
    Channel positions : Front: L C R, Side: L R, LFE
    Sampling rate : 48.0 kHz
    Frame rate : 31.250 FPS (1536 SPF)
    Bit depth : 16 bits
    Compression mode : Lossy
    Stream size : 304 MiB (7%)
    Title : DUB
    Language : Russian
    Service kind : Complete Main
    Default : Yes
    Forced : No
    Text #1
    ID : 3
    Format : UTF-8
    Codec ID : S_TEXT/UTF8
    Codec ID/Info : UTF-8 Plain Text
    Duration : 1 h 49 min
    Bit rate : 31 b/s
    Count of elements : 747
    Stream size : 25.3 KiB (0%)
    Title : Full
    Language : English
    Default : No
    Forced : No
    Text #2
    ID : 4
    Format : UTF-8
    Codec ID : S_TEXT/UTF8
    Codec ID/Info : UTF-8 Plain Text
    Duration : 1 h 49 min
    Bit rate : 34 b/s
    Count of elements : 848
    Stream size : 27.5 KiB (0%)
    Title : SDH
    Language : English
    Default : No
    Forced : No
    Text #3
    ID : 5
    Format : UTF-8
    Codec ID : S_TEXT/UTF8
    Codec ID/Info : UTF-8 Plain Text
    Duration : 1 h 49 min
    Bit rate : 41 b/s
    Count of elements : 848
    Stream size : 32.9 KiB (0%)
    Title : SDH-Colored
    Language : English
    Default : No
    Forced : No
    Menu
    00: 00: 00.000 : en: 00: 00: 00.000
    00: 09: 08.214 : en: 00: 09: 08.214
    00: 18: 02.999 : en: 00: 18: 02.999
    00: 23: 44.423 : en: 00: 23: 44.423
    00: 32: 11.429 : en: 00: 32: 11.429
    00: 44: 42.597 : en: 00: 44: 42.597
    00: 52: 37.321 : en: 00: 52: 37.321
    00: 59: 14.259 : en: 00: 59: 14.259
    01: 08: 23.683 : en: 01: 08: 23.683
    01: 18: 09.727 : en: 01: 18: 09.727
    01: 26: 48.912 : en: 01: 26: 48.912
    01: 34: 48.850 : en: 01: 34: 48.850
    01: 43: 37.211 : en: 01: 43: 37.211

    x264 info: profile High, level 4.1
    x264 info: frame I: 1021 Avg QP: 17.77 size: 189796
    x264 info: frame P: 30977 Avg QP: 20.74 size: 54953
    x264 info: frame B: 127098 Avg QP: 22.71 size: 19449
    x264 info: consecutive B-frames: 1.3% 1.5% 5.6% 12.5% 14.3% 52.9% 4.2% 1.1% 2.0% 2.7% 0.6% 0.4% 0.8%
    x264 info: mb I I16..4: 6.2% 87.5% 6.3%
    x264 info: mb P I16..4: 1.3% 12.1% 1.1% P16..4: 45.4% 19.6% 12.4% 0.1% 0.0% skip: 7.9%
    x264 info: mb B I16..4: 0.1% 1.2% 0.1% B16..8: 43.8% 7.8% 1.7% direct: 5.1% skip: 40.1% L0: 47.3% L1: 47.8% BI: 4.9%
    x264 info: 8x8 transform intra: 84.2% inter: 72.2%
    x264 info: direct mvs spatial: 99.1% temporal: 0.9%
    x264 info: coded y, uvDC, uvAC intra: 83.1% 66.4% 34.3% inter: 23.9% 16.1% 1.1%
    x264 info: i16 v, h, dc, p: 35% 16% 9% 41%
    x264 info: i8 v, h, dc, ddl, ddr, vr, hd, vl, hu: 12% 7% 6% 10% 15% 14% 14% 11% 12%
    x264 info: i4 v, h, dc, ddl, ddr, vr, hd, vl, hu: 20% 5% 3% 8% 15% 14% 14% 10% 10%
    x264 info: i8c dc, h, v, p: 42% 24% 18% 16%
    x264 info: Weighted P-Frames: Y: 4.2% UV: 2.3%
    x264 info: ref P L0: 53.1% 7.1% 21.1% 10.8% 7.5% 0.3% 0.0%
    x264 info: ref B L0: 75.8% 17.0% 5.7% 1.5%
    x264 info: ref B L1: 93.6% 6.4%
    x264 info: kb/s: 5266.10

    Скриншоты для ознакомления



    Все одноименные релизы в Клубе
    Время раздачи: 24/7 до первых 10-и скачавших


    Онлайн видео Горы и камни



    Горы и камни/The Ottoman Lieutenant (2017) BDRip [H.264/1080p-LQ]
    Рейтинг →
     (голосов: 1, оценка 4/5, голосовать можно 1 раз )

    Другие торренты по теме:

  • Горы и камни / The Ottoman Lieutenant (2017) BDRip [H.264 / 1080p] [EN / EN Sub]
  • Горы и камни / The Ottoman Lieutenant (2017) BDRip [H.264 / 720p] [MVO] [AD]
  • Горы и камни / The Ottoman Lieutenant (2017) HDRip [MVO] [AD]
  • Горы и камни / The Ottoman Lieutenant (2017) BDRemux [H.264 / 1080p] [EN / EN, Fr, Sp Sub]
  • Горы и камни / The Ottoman Lieutenant (2017) BDRip [H.264 / 1080p]
  • Горы и камни / The Ottoman Lieutenant (2017) BDRemux [H.264 / 1080p]
  • Горы и камни / The Ottoman Lieutenant (2017) BDRip
  • Горы и камни / The Ottoman Lieutenant (2017) BDRip [H.264]


    • Комментарии (0):

      Информация

      Информация

        Посетители, находящиеся в группе Гости, не могут оставлять комментарии в данной новости.

        ↓ Меню




        ↓ Опрос

        Вы добавили сайт в закладки?
        Да
        Нет


        Top 10 за месяц (Фильмы)