.
Авторизация | Регистрация
Хочешь лучшие торренты? Добавь свой email!
Добавить

Торрент скачать бесплатно

  • support: webmaster@btracker.org
» » Шанхайский перевозчик / S.M.A.R.T. Chase (2017) BDRip [H.265 / 1080p-LQ] [10-bit] торрент скачать бесплатно


    Шанхайский перевозчик / S.M.A.R.T. Chase (2017) BDRip [H.265 / 1080p-LQ] [10-bit] торрент скачать бесплатно

    Опубликовал: Админ | Дата: 31-05-2018, 05:00 | .torrent скачали: 0

    Шанхайский перевозчик / S.M.A.R.T. Chase (2017) BDRip [H.265 / 1080p-LQ] [10-bit]Производство: Китай, США
    Жанр: Боевик, Комедия, Приключения
    Режиссер: Чарльз Мартин

    Актеры
    Орландо Блум, У Лэй, Саймон Ям, Линн Хун, Ханна Куинливан, Син Юй, Том Прайс, Лян Цзин, Ин Да, Чан Жун

    Описание

    Частный агент безопасности сопровождает посылку с антиквариатом из Шанхая и по пути попадает в засаду.

    Возраст: 16+ (зрителям, достигшим 16 лет)
    Рейтинг MPAA: R (лицам до 17 лет обязательно присутствие взрослого)
    Релиз от: M@kSIMus
    Продолжительность: 01: 33: 36
    Качество видео: BDRip
    Перевод: Дублированный (Лицензия)
    Субтитры: Отсутствуют
    Видео: HEVC/H.265, 1920x804, ~6242 Kbps
    Аудио: AC3, 6 ch, 448 Kbps

    Общее
    Уникальный идентификатор : 18038235563758665410643865676260508411 (0xD9209AD5DDDB38B7EF06156E65B02FB)
    Полное имя : J: ФИЛЬМЫШанхайский перевозчик (2017) BDRip 1080p HEVC 10 bit.mkv
    Формат : Matroska
    Версия формата : Version 4/Version 2
    Размер файла : 4, 38 Гбайт
    Продолжительность : 1 ч. 33 м.
    Общий поток : 6692 Кбит/сек
    Дата кодирования : UTC 2018-05-26 07: 25: 10
    Программа кодирования : mkvmerge v19.0.0 (\'Brave Captain\') 64-bit
    Библиотека кодирования : libebml v1.3.5 + libmatroska v1.4.8
    Обложка : Yes
    Attachments : cover.jpg
    Видео
    Идентификатор : 1
    Формат : HEVC
    Формат/Информация : High Efficiency Video Coding
    Профиль формата : Main10@L4.1@High
    Идентификатор кодека : V_MPEGH/ISO/HEVC
    Продолжительность : 1 ч. 33 м.
    Битрейт : 6242 Кбит/сек
    Ширина : 1920 пикселей
    Высота : 804 пикселя
    Соотношение сторон : 2, 40: 1
    Режим частоты кадров : Постоянный
    Частота кадров : 24, 000 кадра/сек
    Цветовое пространство : YUV
    Субдискретизация насыщенности : 4: 2: 0
    Битовая глубина : 10 бит
    Бит/(Пиксели*Кадры) : 0.168
    Размер потока : 4, 08 Гбайт (93%)
    Библиотека кодирования : x265 2.7+336-07defe235cde: Windowsclang 7.0.064 bit 10bit
    Настройки программы : cpuid=1049583/frame-threads=5/numa-pools=4/wpp/no-pmode/no-pme/no-psnr/no-ssim/log-level=3/input-csp=1/input-res=1920x804/interlace=0/total-frames=0/level-idc=41/high-tier=1/uhd-bd=0/ref=2/allow-non-conformance/no-repeat-t_heads/annexb/no-aud/no-hrd/info/hash=0/no-temporal-layers/open-gop/min-keyint=24/keyint=240/gop-lookahead=0/bframes=3/b-adapt=2/b-pyramid/bframe-bias=0/rc-lookahead=20/lookahead-slices=5/scenecut=40/radl=0/no-intra-refresh/ctu=64/min-cu-size=8/no-rect/no-amp/max-tu-size=32/tu-inter-depth=1/tu-intra-depth=1/limit-tu=0/rdoq-level=0/dynamic-rd=0.00/no-ssim-rd/signhide/no-tskip/nr-intra=0/nr-inter=0/no-constrained-intra/strong-intra-smoothing/max-merge=2/limit-refs=3/no-limit-modes/me=1/subme=7/merange=57/temporal-mvp/weightp/no-weightb/no-analyze-src-pics/deblock=-4: -4/sao/no-sao-non-deblock/rd=3/no-early-skip/rskip/no-fast-intra/no-tskip-fast/no-cu-lossless/no-b-intra/no-splitrd-skip/rdpenalty=0/psy-rd=2.00/psy-rdoq=0.00/no-rd-refine/no-lossless/cbqpoffs=0/crqpoffs=0/rc=crf/crf=17.0/qcomp=0.75/qpstep=4/stats-write=0/stats-read=0/vbv-maxrate=50000/vbv-bufsize=50000/vbv-init=0.9/crf-max=0.0/crf-min=0.0/ipratio=1.40/pbratio=1.30/aq-mode=1/aq-strength=1.00/cutree/zone-count=0/no-strict-cbr/qg-size=32/no-rc-grain/qpmax=69/qpmin=0/no-const-vbv/sar=1/overscan=0/videoformat=5/range=0/colorprim=2/transfer=2/colormatrix=2/chromaloc=0/display-window=0/max-cll=0, 0/min-luma=0/max-luma=1023/log2-max-poc-lsb=8/vui-timing-info/vui-hrd-info/slices=1/no-opt-qp-pps/no-opt-ref-list-length-pps/no-multi-pass-opt-rps/scenecut-bias=0.05/no-opt-cu-delta-qp/no-aq-motion/no-hdr/no-hdr-opt/no-dhdr10-opt/no-idr-recovery-sei/analysis-reuse-level=5/scale-factor=0/refine-intra=0/refine-inter=0/refine-mv=0/no-limit-sao/ctu-info=0/no-lowpass-dct/refine-mv-type=0/copy-pic=1/max-ausize-factor=1.0/no-dynamic-refine/no-single-sei
    Язык : English
    Default : Да
    Forced : Нет
    Аудио
    Идентификатор : 2
    Формат : AC-3
    Формат/Информация : Audio Coding 3
    Идентификатор кодека : A_AC3
    Продолжительность : 1 ч. 33 м.
    Вид битрейта : Постоянный
    Битрейт : 448 Кбит/сек
    Каналы : 6 каналов
    Расположение каналов : Front: L C R, Side: L R, LFE
    Частота : 48, 0 КГц
    Частота кадров : 31, 250 кадров/сек (1536 SPF)
    Битовая глубина : 16 бит
    Метод сжатия : С потерями
    Размер потока : 300 Мбайт (7%)
    Заголовок : Дубляж
    Язык : Russian
    ServiceKind/String : Complete Main
    Default : Да
    Forced : Нет
    Доп. информация : - H.265/HEVC (High Efficiency Video Coding) - это новый стандарт кодирования видео.
    - Стандарт H.265/HEVC является логическим продолжением стандарта H.264/AVC (Advanced Video Coding), и характеризуется более эффективными алгоритмами сжатия, а также поддержкой высокого разрешения вплоть до 8K UHD (8192x4320). Первая версия стандарта H.265 была опубликована в начале 2013 года.
    - Рипы в фомате HEVC поддерживается не всеми аппаратными проигрывателями.
    - Для корректного воспроизведения может потребоваться обновление ПО.
    - Владельцам несовместимого железа просьба не беспокоить, есть альтернативные релизы.

    Скриншоты для ознакомления



    Все одноименные релизы в Клубе
    Время раздачи: с 8: 00 до 22: 00 (до появления первых 3-5 скачавших)


    Онлайн видео Шанхайский перевозчик



    Шанхайский перевозчик/S.M.A.R.T. Chase (2017) BDRip [H.265/1080p-LQ] [10-bit]
    Рейтинг →
     (голосов: 1, оценка 5/5, голосовать можно 1 раз )

    Другие торренты по теме:

  • Шанхайский перевозчик / S.M.A.R.T. Chase (2017) TS [H.264 / 720-LQ] [AD]
  • Шанхайский перевозчик / S.M.A.R.T. Chase (2017) TS [AD]
  • Шанхайский перевозчик / S.M.A.R.T. Chase (2017) WEB-DL [H.264 / 1080p-LQ]
  • Шанхайский перевозчик / S.M.A.R.T. Chase (2017) WEB-DLRip
  • Шанхайский перевозчик / S.M.A.R.T. Chase (2017) WEB-DLRip [576p] iPad
  • Шанхайский перевозчик / S.M.A.R.T. Chase (2017) WEB-DL [1080p] ATV
  • Шанхайский перевозчик / S.M.A.R.T. Chase (2017) WEB-DLRip [H.264]
  • Шанхайский перевозчик / S.M.A.R.T. Chase (2017) BDRip [H.264 / 1080p]


    • Комментарии (0):

      Информация

      Информация

        Посетители, находящиеся в группе Гости, не могут оставлять комментарии в данной новости.

        ↓ Меню




        ↓ Опрос

        Вы добавили сайт в закладки?
        Да
        Нет


        Top 10 за месяц (Фильмы)