.
Авторизация | Регистрация
Хочешь лучшие торренты? Добавь свой email!
Добавить

Торрент скачать бесплатно

  • support: webmaster@btracker.org
» » Хищник / Predator (1987) BDRip [H.264 / 1080p-LQ] торрент скачать бесплатно


    Хищник / Predator (1987) BDRip [H.264 / 1080p-LQ] торрент скачать бесплатно

    Опубликовал: Админ | Дата: 31-05-2018, 05:00 | .torrent скачали: 0

    Хищник / Predator (1987) BDRip [H.264 / 1080p-LQ]Производство: США/20th Century Fox, Lawrence Gordon Productions, Silver Pictures
    Жанр: Фантастика, Боевик, Триллер
    Режиссер: Джон МакТирнан

    Актеры
    Арнольд Шварценеггер, Карл Уэзерс, Эльпидия Каррильо, Билл Дьюк, Джесси Вентура, Сонни Лэндэм, Ричард Чавес, Р.Г. Армстронг, Шейн Блэк, Кевин Питер Холл

    Описание

    Американский вертолет был сбит партизанами в Южной Америке. Оставшийся в живых экипаж находится в плену. Центральное разведывательное управление США бросает свои лучшие силы для освобождения американских граждан.
    Элитная группа спецназа во главе с Датчем была заброшена в южноамериканские джунгли.

    Возраст: 16+ (зрителям, достигшим 16 лет)
    Рейтинг MPAA: R (лицам до 17 лет обязательно присутствие взрослого)
    Релиз от: SanLex
    Продолжительность: 01: 46: 35
    Качество видео: BDRip
    Перевод: Дублированный (BD CEE)
    Субтитры: Русские, английские
    Видео: AVC/H.264, 1920x1040, ~4 973 kb/s
    Аудио #01: AC3, 6 ch, 448 Kbps - Русский
    Аудио #02: AC3, 6 ch, 448 Kbps - Английский

    General
    Unique ID : 193870568611311898670744485576383816245 (0x91DA1D0401C4C199A151E0CD44BA6235)
    Complete name : Хищник - Predator (1987) BDRip.mkv
    Format : Matroska
    Format version : Version 2
    File size : 4.37 GiB
    Duration : 1 h 46 min
    Overall bit rate : 5 871 kb/s
    Encoded date : UTC 2018-05-30 12: 17: 50
    Writing application : mkvmerge v7.8.0 (\'River Man\') 32bit built on Apr 3 2015 12: 11: 22
    Writing library : libebml v1.3.1 + libmatroska v1.4.2
    Video
    ID : 1
    Format : AVC
    Format/Info : Advanced Video Codec
    Format profile : High@L4.1
    Format settings : CABAC/4 Ref Frames
    Format settings, CABAC : Yes
    Format settings, RefFrames : 4 frames
    Codec ID : V_MPEG4/ISO/AVC
    Duration : 1 h 46 min
    Bit rate : 4 973 kb/s
    Width : 1 920 pixels
    Height : 1 040 pixels
    Display aspect ratio : 1.85: 1
    Frame rate mode : Constant
    Frame rate : 23.976 (24000/1001) FPS
    Color space : YUV
    Chroma subsampling : 4: 2: 0
    Bit depth : 8 bits
    Scan type : Progressive
    Bits/(Pixel*Frame) : 0.104
    Stream size : 3.62 GiB (83%)
    Title : Хищник/Predator (1987)
    Writing library : x264 core 152 r2851 ba24899
    Encoding settings : cabac=1/ref=4/deblock=1: -1: -1/analyse=0x3: 0x113/me=umh/subme=10/psy=1/psy_rd=1.00: 0.00/mixed_ref=1/me_range=32/chroma_me=1/trellis=2/8x8dct=1/cqm=0/deadzone=21, 11/fast_pskip=0/chroma_qp_offset=-2/threads=6/lookahead_threads=1/sliced_threads=0/nr=0/decimate=1/interlaced=0/bluray_compat=0/constrained_intra=0/bframes=8/b_pyramid=2/b_adapt=2/b_bias=0/direct=3/weightb=1/open_gop=0/weightp=2/keyint=250/keyint_min=23/scenecut=40/intra_refresh=0/rc_lookahead=60/rc=2pass/mbtree=0/bitrate=4973/ratetol=1.0/qcomp=0.60/qpmin=0/qpmax=69/qpstep=4/cplxblur=20.0/qblur=0.5/vbv_maxrate=14000/vbv_bufsize=14000/nal_hrd=none/filler=0/ip_ratio=1.40/pb_ratio=1.30/aq=1: 1.00
    Language : English
    Default : Yes
    Forced : No
    Audio #1
    ID : 2
    Format : AC-3
    Format/Info : Audio Coding 3
    Codec ID : A_AC3
    Duration : 1 h 46 min
    Bit rate mode : Constant
    Bit rate : 448 kb/s
    Channel(s) : 6 channels
    Channel positions : Front: L C R, Side: L R, LFE
    Sampling rate : 48.0 kHz
    Frame rate : 31.250 FPS (1536 SPF)
    Bit depth : 16 bits
    Compression mode : Lossy
    Stream size : 342 MiB (8%)
    Language : Russian
    Service kind : Complete Main
    Default : Yes
    Forced : No
    Audio #2
    ID : 3
    Format : AC-3
    Format/Info : Audio Coding 3
    Codec ID : A_AC3
    Duration : 1 h 46 min
    Bit rate mode : Constant
    Bit rate : 448 kb/s
    Channel(s) : 6 channels
    Channel positions : Front: L C R, Side: L R, LFE
    Sampling rate : 48.0 kHz
    Frame rate : 31.250 FPS (1536 SPF)
    Bit depth : 16 bits
    Compression mode : Lossy
    Stream size : 342 MiB (8%)
    Language : English
    Service kind : Complete Main
    Default : No
    Forced : No
    Text #1
    ID : 4
    Format : UTF-8
    Codec ID : S_TEXT/UTF8
    Codec ID/Info : UTF-8 Plain Text
    Language : Russian
    Default : No
    Forced : No
    Text #2
    ID : 5
    Format : UTF-8
    Codec ID : S_TEXT/UTF8
    Codec ID/Info : UTF-8 Plain Text
    Language : English
    Default : No
    Forced : No
    Menu
    00: 00: 00.000 : : Chapter 1
    00: 04: 04.285 : : Chapter 2
    00: 06: 29.639 : : Chapter 3
    00: 10: 32.465 : : Chapter 4
    00: 18: 21.183 : : Chapter 5
    00: 20: 21.553 : : Chapter 6
    00: 27: 52.337 : : Chapter 7
    00: 31: 04.279 : : Chapter 8
    00: 34: 53.716 : : Chapter 9
    00: 37: 49.600 : : Chapter 10
    00: 41: 00.833 : : Chapter 11
    00: 46: 33.373 : : Chapter 12
    00: 53: 08.685 : : Chapter 13
    01: 01: 37.402 : : Chapter 14
    01: 04: 08.761 : : Chapter 15
    01: 08: 09.919 : : Chapter 16
    01: 14: 10.362 : : Chapter 17
    01: 15: 50.212 : : Chapter 18
    01: 18: 27.369 : : Chapter 19
    01: 20: 55.809 : : Chapter 20
    01: 25: 09.270 : : Chapter 21
    01: 34: 31.832 : : Chapter 22
    01: 35: 49.118 : : Chapter 23
    01: 39: 58.659 : : Chapter 24
    01: 42: 56.170 : : Chapter 25
    01: 46: 35.514 : : Chapter 26

    Скриншоты для ознакомления



    Все одноименные релизы в Клубе
    Время раздачи: 24/7 (до появления первых 3-5 скачавших)


    Онлайн видео Хищник



    Хищник/Predator (1987) BDRip [H.264/1080p-LQ]
    Рейтинг →
     (голосов: 1, оценка 4/5, голосовать можно 1 раз )

    Другие торренты по теме:

  • Хищник / Predator (1987) BDRip [720p] [hand made 60fps] скачать через торрент бесплатно
  • Хищник / Predator (1987) BDRip [H.264 / 1080p] скачать через торрент бесплатно
  • Хищник / Predator (1987) BDRemux [2D / 3D] [H.264 / 1080p] скачать через торрент бесплатно
  • Хищник / Predator (1987) BDRip [H.265 / 1080p-LQ]
  • Хищник / Predator (1987) BDRip [H.265 / 1080p]
  • Хищник / Predator (1987) BDRip [H.264 / 1080p-LQ] [Ultimate Hunter Edition]
  • Хищник / Predator (1987) [Ultimate Hunter Edition] BDRip [H.265 / 1080p-LQ] [10-bit]
  • Хищник: Трилогия / Predator: Trilogy (1987,1990,2010) BDRip [H.264]


    • Комментарии (0):

      Информация

      Информация

        Посетители, находящиеся в группе Гости, не могут оставлять комментарии в данной новости.

        ↓ Меню




        ↓ Опрос

        Вы добавили сайт в закладки?
        Да
        Нет


        Top 10 за месяц (Фильмы)