.
Авторизация | Регистрация
Хочешь лучшие торренты? Добавь свой email!
Добавить

Торрент скачать бесплатно

  • support: webmaster@btracker.org
» » Самые счастливые (2005) WEBRip [H.264 / 1080p-LQ] торрент скачать бесплатно


    Самые счастливые (2005) WEBRip [H.264 / 1080p-LQ] торрент скачать бесплатно

    Опубликовал: Админ | Дата: 31-05-2018, 05:00 | .torrent скачали: 0

    Самые счастливые (2005) WEBRip [H.264 / 1080p-LQ]Производство: Россия
    Жанр: Драма, комедия
    Режиссер: Станислав Митин

    Актеры
    Сергей Баталов, Наталия Эсхи, Наталия Фиссон, Игорь Ливанов, Сергей Мардарь

    Описание

    Две главных героини фильма, ни о чем не подозревая, оказываются больше, чем просто школьными подругами в прошлом, ведь их избраннику не мешает разное социальное положение, разные взгляды и характеры женщин и он давно нашел свое место с обеими. Окажется ли и в любовной геометрии треугольник самой устойчивой фигурой?

    Возраст: 16+ (зрителям, достигшим 16 лет)
    Релиз от: Aлexandr
    Продолжительность: 01: 28: 18
    Качество видео: WEBRip
    Субтитры: Отсутствуют
    Видео: AVC/H.264, 1920x1080 (16: 9), ~3210 Kbps
    Аудио: AC3, 2 ch, 192 Kbps

    Общее
    Уникальный идентификатор : 80636104174275663662819649588149673490 (0x3CA9F2E21E5F1867622750A73DECDE12)
    Полное имя : D: Самые счастливые (2005).by.Алехаndr.mkv
    Формат : Matroska
    Версия формата : Version 4/Version 2
    Размер файла : 2, 10 Гбайт
    Продолжительность : 1 ч. 28 м.
    Общий поток : 3404 Кбит/сек
    Дата кодирования : UTC 2018-05-30 07: 22: 59
    Программа кодирования : mkvmerge v23.0.0 (\'The Bride Said No\') 64-bit
    Библиотека кодирования : libebml v1.3.6 + libmatroska v1.4.9/Lavf57.71.100
    Видео
    Идентификатор : 1
    Формат : AVC
    Формат/Информация : Advanced Video Codec
    Профиль формата : High@L4
    Настройки формата : CABAC/2 Ref Frames
    Параметр CABAC формата : Да
    Параметр RefFrames формата : 2 кадра
    Идентификатор кодека : V_MPEG4/ISO/AVC
    Продолжительность : 1 ч. 28 м.
    Битрейт : 3210 Кбит/сек
    Ширина : 1920 пикселей
    Высота : 1080 пикселей
    Соотношение сторон : 16: 9
    Режим частоты кадров : Постоянный
    Частота кадров : 25, 000 кадров/сек
    Цветовое пространство : YUV
    Субдискретизация насыщенности : 4: 2: 0
    Битовая глубина : 8 бит
    Тип развёртки : Прогрессивная
    Бит/(Пиксели*Кадры) : 0.062
    Размер потока : 1, 98 Гбайт (94%)
    Default : Да
    Forced : Нет
    Цветовой диапазон : Limited
    Основные цвета : BT.709
    Характеристики трансфера : BT.709
    Коэффициенты матрицы : BT.709
    Аудио
    Идентификатор : 2
    Формат : AC-3
    Формат/Информация : Audio Coding 3
    Идентификатор кодека : A_AC3
    Продолжительность : 1 ч. 28 м.
    Вид битрейта : Постоянный
    Битрейт : 192 Кбит/сек
    Каналы : 2 канала
    Расположение каналов : Front: L R
    Частота : 48, 0 КГц
    Частота кадров : 31, 250 кадров/сек (1536 SPF)
    Битовая глубина : 16 бит
    Метод сжатия : С потерями
    Размер потока : 121 Мбайт (6%)
    ServiceKind/String : Complete Main
    Default : Да
    Forced : Нет

    Скриншоты для ознакомления



    Все одноименные релизы в Клубе
    Время раздачи: 24/7 (круглосуточно) (до появления первых 3-5 скачавших)


    Онлайн видео Самые счастливые (2005) WEBRip [H.264



    Самые счастливые (2005) WEBRip [H.264/1080p-LQ]
    Рейтинг →
     (голосов: 1, оценка 4/5, голосовать можно 1 раз )

    Другие торренты по теме:

  • Самые красивые места планеты Земля (Захватывающие дух цвета природы) / Breathtaking Colors of Nature (2018) WEBRip [VP9 / 2160p] [4K]
  • Южный Парк / South Park (1997-2010) DVDRip / WebDL (17 сезонов + самые первые серии + полнометражный мультфильм) скачать через торрент бесплатно
  • VA - Дискотека Non-Stop. Самые горячие хиты (2014) [MP3|256 кб / с]<Pop, Dance>
  • VA - Осенний марафон № 136 / Видеоклипы (Самые Танцевальные Хиты) (2014) WEBRip [H.264 / 1080p-LQ] скачать через торрент бесплатно
  • Живые Пейзажи. Самые красивые водопады / Living Landscapes. Worlds Most Beautiful Waterfalls (2009) BDRip [H.264 / 1080p] скачать через торрент бесплатно
  • Книжная серия | Самые известные комнатные растения мира [7 книг] (2005-2008) [PDF, DJVU] скачать через торрент бесплатно
  • Алексей Хитров | V.I.P. ХАРИЗМА. Самые жесткие приемы психологической атаки (2010) CamRip
  • VA - Самые Модные Новогодние Хиты (2014) [MP3|256 кб / с]<Pop> скачать через торрент бесплатно


    • Комментарии (0):

      Информация

      Информация

        Посетители, находящиеся в группе Гости, не могут оставлять комментарии в данной новости.

        ↓ Меню




        ↓ Опрос

        Вы добавили сайт в закладки?
        Да
        Нет


        Top 10 за месяц (Фильмы)