.
Авторизация | Регистрация
Хочешь лучшие торренты? Добавь свой email!
Добавить

Торрент скачать бесплатно

  • support: webmaster@btracker.org
» » Убрать перископ / Down Periscope (1996) WEB-DLRip [H.264 / 720p] торрент скачать бесплатно


    Убрать перископ / Down Periscope (1996) WEB-DLRip [H.264 / 720p] торрент скачать бесплатно

    Опубликовал: Админ | Дата: 31-05-2018, 05:00 | .torrent скачали: 0

    Убрать перископ / Down Periscope (1996) WEB-DLRip [H.264 / 720p]Производство: США/20th Century Fox Film Corporation
    Жанр: Комедия
    Режиссер: Дэвид С. Уорд

    Актеры
    Келси Грэммер (Tom Dodge), Лорен Холли (Emily), Роб Шнайдер (Marty Pascal), Гарри Дин Стэнтон (Howard), Брюс Дерн (Admiral Graham), Уильям Х. Мэйси (Captain Knox), Кен Хадсон Кэмпбелл (Buckman), Тоби Хасс (Nitro), Дуэйн Мартин (Jackson), Джонатан Пеннер (Spots), Брэдфорд Татум (Stepanak), Харланд Уильямс (Sonar)

    Описание

    Вместо долгожданной атомной подводной лодки капитан Том Додж получает в свое распоряжение допотопную дизельную развалину. Судя по внешнему виду, единственное, на что она способна — это последнее и очень быстрое погружение. Однако его это не смущает, ведь он самый веселый и бесшабашный капитан флота США, настоящий морской волк с татуировкой на интимном месте.
    Под стать ему подобрался и экипаж. Более эксцентричных и нелепых матросов в природе не существует. А когда в качестве эксперимента на лодку назначается женщина-офицер, и без того неспокойные моряки просто сходят с ума…

    Возраст: 0+ (для любой зрительской аудитории)
    Рейтинг MPAA: PG-13 (детям до 13 лет просмотр нежелателен)
    Релиз от: k.e.n MegaPeer
    Продолжительность: 01: 32: 47
    Качество видео: WEB-DLRip
    Перевод: Профессиональный (двухголосый, закадровый), авторский (одноголосый, закадровый)
    Субтитры: Русские, английские
    Видео: AVC, 1280x692 (1.85), 23.976 fps, 5 017 Kbps (0.236 bit/pixel)
    Аудио#1: Russian: 48 kHz, AC3, 6 ch, ~384 kbps |Авторский, П.Санаев|
    Аудио#2: Russian: 48 kHz, AC3, 6 ch, ~384 kbps |Двухголосый закадровый, ?|
    Аудио#3: Russian: 48 kHz, AC3, 2 ch, ~192 kbps |Двухголосый закадровый, Премьер-Видео|
    Аудио#4: Russian: 48 kHz, AC3, 2 ch, ~192 kbps |Двухголосый закадровый, ОРТ|
    Аудио#5: Russian: 48 kHz, AC3, 2 ch, ~192 kbps |Авторский, Ю.Живов|
    Аудио#6: English: 48 kHz, AC3, 6 ch, ~384 kbps

    Полное имя : D: ФИЛЬМЫУбрать перископ.1996 (К.Грэммер, Л.Холли).k.e.n MegaPeer.mkv
    Формат : Matroska
    Версия формата : Version 2
    Размер файла : 4, 37 Гбайт
    Продолжительность : 1 ч. 32 м.
    Общий поток : 6744 Кбит/сек
    Название фильма : Down Periscope.(1986)
    Дата кодирования : UTC 2018-05-28 07: 20: 51
    Программа кодирования : mkvmerge v5.3.0 (\'I could have danced\') built on Feb 9 2012 10: 38: 07
    Библиотека кодирования : libebml v1.2.3 + libmatroska v1.3.0
    Attachments : poster (3).png
    Видео
    Идентификатор : 1
    Формат : AVC
    Формат/Информация : Advanced Video Codec
    Профиль формата : High@L4.1
    Параметр CABAC формата : Да
    Параметр ReFrames формата : 9 кадров
    Идентификатор кодека : V_MPEG4/ISO/AVC
    Продолжительность : 1 ч. 32 м.
    Битрейт : 5017 Кбит/сек
    Ширина : 1280 пикселей
    Высота : 692 пикселя
    Соотношение сторон : 1, 85: 1
    Режим частоты кадров : Постоянный
    Частота кадров : 23, 976 (24000/1001) кадра/сек
    Цветовое пространство : YUV
    Субдискретизация насыщенности : 4: 2: 0
    Битовая глубина : 8 бит
    Тип развёртки : Прогрессивная
    Бит/(Пиксели*Кадры) : 0.236
    Размер потока : 3, 16 Гбайт (72%)
    Библиотека кодирования : x264 core 146 r2538 121396c
    Настройки программы : cabac=1/ref=9/deblock=1: -3: -3/analyse=0x3: 0x133/me=umh/subme=11/psy=1/psy_rd=1.00: 0.15/mixed_ref=1/me_range=32/chroma_me=1/trellis=2/8x8dct=1/cqm=0/deadzone=21, 11/fast_pskip=0/chroma_qp_offset=-3/threads=12/lookahead_threads=3/sliced_threads=0/nr=0/decimate=0/interlaced=0/bluray_compat=0/constrained_intra=0/bframes=9/b_pyramid=2/b_adapt=2/b_bias=0/direct=3/weightb=1/open_gop=0/weightp=2/keyint=240/keyint_min=23/scenecut=40/intra_refresh=0/rc=2pass/mbtree=0/bitrate=5017/ratetol=1.0/qcomp=0.60/qpmin=0/qpmax=69/qpstep=4/cplxblur=20.0/qblur=0.5/ip_ratio=1.40/pb_ratio=1.30/aq=3: 0.70
    Язык : English
    Default : Да
    Forced : Нет
    Аудио #1
    Идентификатор : 2
    Формат : AC-3
    Формат/Информация : Audio Coding 3
    Расширение режима : CM (complete main)
    Параметр Endianness формата : Big
    Идентификатор кодека : A_AC3
    Продолжительность : 1 ч. 32 м.
    Вид битрейта : Постоянный
    Битрейт : 384 Кбит/сек
    Каналы : 6 каналов
    Расположение каналов : Front: L C R, Side: L R, LFE
    Частота : 48, 0 КГц
    Частота кадров : 31, 250 кадров/сек (1536 spf)
    Битовая глубина : 16 бит
    Метод сжатия : С потерями
    Задержка видео : 24 мс.
    Размер потока : 255 Мбайт (6%)
    Заголовок : Авторский, П. Санаев
    Язык : Russian
    Default : Да
    Forced : Нет
    Аудио #2
    Идентификатор : 3
    Формат : AC-3
    Формат/Информация : Audio Coding 3
    Расширение режима : CM (complete main)
    Параметр Endianness формата : Big
    Идентификатор кодека : A_AC3
    Продолжительность : 1 ч. 32 м.
    Вид битрейта : Постоянный
    Битрейт : 384 Кбит/сек
    Каналы : 6 каналов
    Расположение каналов : Front: L C R, Side: L R, LFE
    Частота : 48, 0 КГц
    Частота кадров : 31, 250 кадров/сек (1536 spf)
    Битовая глубина : 16 бит
    Метод сжатия : С потерями
    Задержка видео : 24 мс.
    Размер потока : 255 Мбайт (6%)
    Заголовок : Двухголосый
    Язык : Russian
    Default : Нет
    Forced : Нет
    Аудио #3
    Идентификатор : 4
    Формат : AC-3
    Формат/Информация : Audio Coding 3
    Расширение режима : CM (complete main)
    Параметр Endianness формата : Big
    Идентификатор кодека : A_AC3
    Продолжительность : 1 ч. 32 м.
    Вид битрейта : Постоянный
    Битрейт : 192 Кбит/сек
    Каналы : 2 канала
    Расположение каналов : Front: L R
    Частота : 48, 0 КГц
    Частота кадров : 31, 250 кадров/сек (1536 spf)
    Битовая глубина : 16 бит
    Метод сжатия : С потерями
    Задержка видео : 24 мс.
    Размер потока : 127 Мбайт (3%)
    Заголовок : Двухголосый, Премьер-Видео
    Язык : Russian
    Default : Нет
    Forced : Нет
    Аудио #4
    Идентификатор : 5
    Формат : AC-3
    Формат/Информация : Audio Coding 3
    Расширение режима : CM (complete main)
    Параметр Endianness формата : Big
    Идентификатор кодека : A_AC3
    Продолжительность : 1 ч. 32 м.
    Вид битрейта : Постоянный
    Битрейт : 192 Кбит/сек
    Каналы : 2 канала
    Расположение каналов : Front: L R
    Частота : 48, 0 КГц
    Частота кадров : 31, 250 кадров/сек (1536 spf)
    Битовая глубина : 16 бит
    Метод сжатия : С потерями
    Задержка видео : 24 мс.
    Размер потока : 127 Мбайт (3%)
    Заголовок : Двухголосый, ОРТ
    Язык : Russian
    Default : Нет
    Forced : Нет
    Аудио #5
    Идентификатор : 6
    Формат : AC-3
    Формат/Информация : Audio Coding 3
    Расширение режима : CM (complete main)
    Параметр Endianness формата : Big
    Идентификатор кодека : A_AC3
    Продолжительность : 1 ч. 32 м.
    Вид битрейта : Постоянный
    Битрейт : 192 Кбит/сек
    Каналы : 2 канала
    Расположение каналов : Front: L R
    Частота : 48, 0 КГц
    Частота кадров : 31, 250 кадров/сек (1536 spf)
    Битовая глубина : 16 бит
    Метод сжатия : С потерями
    Задержка видео : 24 мс.
    Размер потока : 127 Мбайт (3%)
    Заголовок : Авторский, Ю. Живов
    Язык : Russian
    Default : Нет
    Forced : Нет
    Аудио #6
    Идентификатор : 7
    Формат : AC-3
    Формат/Информация : Audio Coding 3
    Расширение режима : CM (complete main)
    Параметр Endianness формата : Big
    Идентификатор кодека : A_AC3
    Продолжительность : 1 ч. 32 м.
    Вид битрейта : Постоянный
    Битрейт : 384 Кбит/сек
    Каналы : 6 каналов
    Расположение каналов : Front: L C R, Side: L R, LFE
    Частота : 48, 0 КГц
    Частота кадров : 31, 250 кадров/сек (1536 spf)
    Битовая глубина : 16 бит
    Метод сжатия : С потерями
    Задержка видео : 24 мс.
    Размер потока : 255 Мбайт (6%)
    Заголовок : Оригинал
    Язык : English
    Default : Нет
    Forced : Нет
    Текст #1
    Идентификатор : 8
    Формат : UTF-8
    Идентификатор кодека : S_TEXT/UTF8
    Идентификатор кодека/Информация : UTF-8 Plain Text
    Язык : Russian
    Default : Нет
    Forced : Нет
    Текст #2
    Идентификатор : 9
    Формат : UTF-8
    Идентификатор кодека : S_TEXT/UTF8
    Идентификатор кодека/Информация : UTF-8 Plain Text
    Язык : English
    Default : Нет
    Forced : Нет

    Скриншоты для ознакомления



    Все одноименные релизы в Клубе
    Время раздачи: с 23: 00 до 8: 30 (до появления первых 3-5 скачавших)


    Онлайн видео Убрать перископ



    Убрать перископ/Down Periscope (1996) WEB-DLRip [H.264/720p]
    Рейтинг →
     (голосов: 1, оценка 4/5, голосовать можно 1 раз )

    Другие торренты по теме:

  • Убрать перископ / Down Periscope (1996) WEB-DL [H.264 / 720p-LQ]
  • Убрать перископ / Down Periscope (1996) WEB-DLRip [H.264 / 1080p]
  • Убрать перископ / Down Periscope (1996) WEB-DLRip [H.264] [MP4|1024x552]
  • Убрать перископ / Down Periscope (1996) WEB-DL [1080p] ATV


    • Комментарии (0):

      Информация

      Информация

        Посетители, находящиеся в группе Гости, не могут оставлять комментарии в данной новости.

        ↓ Меню




        ↓ Опрос

        Вы добавили сайт в закладки?
        Да
        Нет


        Top 10 за месяц (Фильмы)