.
Авторизация | Регистрация
Хочешь лучшие торренты? Добавь свой email!
Добавить

Торрент скачать бесплатно

  • support: webmaster@btracker.org
» » Полтергейст / Poltergeist (1982) BDRip [H.264 / 720p] торрент скачать бесплатно


    Полтергейст / Poltergeist (1982) BDRip [H.264 / 720p] торрент скачать бесплатно

    Опубликовал: Админ | Дата: 31-05-2018, 05:00 | .torrent скачали: 0

    Полтергейст / Poltergeist (1982) BDRip [H.264 / 720p]Производство: США, Metro-Goldwyn-Mayer (MGM), SLM Production Group
    Жанр: Ужасы, Триллер
    Режиссер: Тоуб Хупер

    Актеры
    Крэйг Т. Нельсон, ДжоБет Уильямс, Хезер О\'Рурк, Беатрис Стрэйт, Оливер Робинс, Вирджиния Кисер, Доминик Данн, Ричард Лоусон, Зелда Рубинстайн, Лу Перри, Джеймс Карен, Дирк Блокер, Мартин Каселла, Аллен Граф, Джозеф Уолш, Хелен Барон, Ноэль Конлон, Роберт Бройлес, Сонни Лэндэм, Уильям Вейл, Джеффри Бэннистер, Крэйг Симмонс

    Описание

    Они здесь… Сначала они кажутся призрачными, играя в прятки в загородном доме Фрилингов. Но затем становится по-настоящему страшно! Тучи сгущаются, ожившие деревья нападают, а малютку Кэрол Энн Фрилинг засасывает в спектральную пустоту. И пока ее семья борется с вереницей кошмаров и пытается спасти девочку, по соседству, где-то рядом затаилось нечто…

    Возраст: 16+ (зрителям, достигшим 16 лет)
    Рейтинг MPAA: PG (рекомендуется присутствие родителей)
    Релиз от: HDReactor
    Продолжительность: 01: 54: 28
    Качество видео: BDRip
    Перевод: Многоголосый закадровый, авторский
    Субтитры: Русские, английские
    Видео: AVC/H.264, 1280х534, ~5344 Kbps
    Аудио #1: Русский, AC3, 6 ch, 384 Kbps - MVO DVD
    Аудио #2: Русский, AC3, 6 ch, 448 Kbps - AVO А. Михалёв
    Аудио #3: Русский, AC3, 2 ch, 192 Kbps - MVO Россия-1
    Аудио #4: Украинский, AC3, 6 ch, 384 Kbps - MVO ICTV
    Аудио #5: Английский, AC3, 6 ch, 448 Kbps - Оригинал

    Полное имя : J: PoltergeistPoltergeist.1982.BDRip.720p.HDReactor.mkv
    Формат : Matroska
    Версия формата : Version 2
    Размер файла : 5, 76 Гбайт
    Продолжительность : 1 ч. 54 м.
    Общий поток : 7201 Кбит/сек
    Название фильма : ~V ad~
    Дата кодирования : UTC 2018-05-29 15: 42: 05
    Программа кодирования : mkvmerge v6.5.0 (\'Isn\'t she lovely\') built on Oct 20 2013 12: 50: 05
    Библиотека кодирования : libebml v1.3.0 + libmatroska v1.4.1
    Обложка : Yes
    Attachments : cover.jpg
    Видео
    Идентификатор : 1
    Формат : AVC
    Формат/Информация : Advanced Video Codec
    Профиль формата : High@L4.1
    Настройки формата : CABAC/12 Ref Frames
    Параметр CABAC формата : Да
    Параметр RefFrames формата : 12 кадров
    Идентификатор кодека : V_MPEG4/ISO/AVC
    Продолжительность : 1 ч. 54 м.
    Битрейт : 5344 Кбит/сек
    Ширина : 1280 пикселей
    Высота : 534 пикселя
    Соотношение сторон : 2, 40: 1
    Режим частоты кадров : Постоянный
    Частота кадров : 23, 976 (24000/1001) кадра/сек
    Цветовое пространство : YUV
    Субдискретизация насыщенности : 4: 2: 0
    Битовая глубина : 8 бит
    Тип развёртки : Прогрессивная
    Бит/(Пиксели*Кадры) : 0.326
    Размер потока : 4, 16 Гбайт (72%)
    Заголовок : ~V~
    Библиотека кодирования : x264 core 155 r2901 7d0ff22
    Настройки программы : cabac=1/ref=12/deblock=1: -2: -2/analyse=0x3: 0x133/me=umh/subme=11/psy=1/psy_rd=1.00: 0.00/mixed_ref=1/me_range=32/chroma_me=1/trellis=2/8x8dct=1/cqm=0/deadzone=21, 11/fast_pskip=0/chroma_qp_offset=-2/threads=12/lookahead_threads=1/sliced_threads=0/nr=0/decimate=0/interlaced=0/bluray_compat=0/constrained_intra=0/bframes=12/b_pyramid=2/b_adapt=2/b_bias=0/direct=3/weightb=1/open_gop=0/weightp=2/keyint=240/keyint_min=23/scenecut=40/intra_refresh=0/rc=2pass/mbtree=0/bitrate=5344/ratetol=1.0/qcomp=0.65/qpmin=0/qpmax=69/qpstep=4/cplxblur=20.0/qblur=0.5/ip_ratio=1.28/pb_ratio=1.30/aq=3: 0.90
    Язык : Английский
    Default : Да
    Forced : Нет
    Аудио #1
    Идентификатор : 2
    Формат : AC-3
    Формат/Информация : Audio Coding 3
    Идентификатор кодека : A_AC3
    Продолжительность : 1 ч. 54 м.
    Вид битрейта : Постоянный
    Битрейт : 384 Кбит/сек
    Каналы : 6 каналов
    Расположение каналов : Front: L C R, Side: L R, LFE
    Частота : 48, 0 КГц
    Частота кадров : 31, 250 кадров/сек (1536 SPF)
    Битовая глубина : 16 бит
    Метод сжатия : С потерями
    Размер потока : 314 Мбайт (5%)
    Заголовок : MVODVD
    Язык : Русский
    Service Kind : Complete Main
    Default : Да
    Forced : Нет
    Аудио #2
    Идентификатор : 3
    Формат : AC-3
    Формат/Информация : Audio Coding 3
    Идентификатор кодека : A_AC3
    Продолжительность : 1 ч. 54 м.
    Вид битрейта : Постоянный
    Битрейт : 448 Кбит/сек
    Каналы : 6 каналов
    Расположение каналов : Front: L C R, Side: L R, LFE
    Частота : 48, 0 КГц
    Частота кадров : 31, 250 кадров/сек (1536 SPF)
    Битовая глубина : 16 бит
    Метод сжатия : С потерями
    Размер потока : 367 Мбайт (6%)
    Заголовок : AVOА.Михалёв
    Язык : Русский
    Service Kind : Complete Main
    Default : Нет
    Forced : Нет
    Аудио #3
    Идентификатор : 4
    Формат : AC-3
    Формат/Информация : Audio Coding 3
    Идентификатор кодека : A_AC3
    Продолжительность : 1 ч. 54 м.
    Вид битрейта : Постоянный
    Битрейт : 192 Кбит/сек
    Каналы : 2 канала
    Расположение каналов : Front: L R
    Частота : 48, 0 КГц
    Частота кадров : 31, 250 кадров/сек (1536 SPF)
    Битовая глубина : 16 бит
    Метод сжатия : С потерями
    Размер потока : 157 Мбайт (3%)
    Заголовок : MVOРоссия
    Язык : Русский
    Service Kind : Complete Main
    Default : Нет
    Forced : Нет
    Аудио #4
    Идентификатор : 5
    Формат : AC-3
    Формат/Информация : Audio Coding 3
    Идентификатор кодека : A_AC3
    Продолжительность : 1 ч. 54 м.
    Вид битрейта : Постоянный
    Битрейт : 384 Кбит/сек
    Каналы : 6 каналов
    Расположение каналов : Front: L C R, Side: L R, LFE
    Частота : 48, 0 КГц
    Частота кадров : 31, 250 кадров/сек (1536 SPF)
    Битовая глубина : 16 бит
    Метод сжатия : С потерями
    Размер потока : 314 Мбайт (5%)
    Заголовок : MVOICTV
    Язык : Украинский
    Service Kind : Complete Main
    Default : Нет
    Forced : Нет
    Аудио #5
    Идентификатор : 6
    Формат : AC-3
    Формат/Информация : Audio Coding 3
    Идентификатор кодека : A_AC3
    Продолжительность : 1 ч. 54 м.
    Вид битрейта : Постоянный
    Битрейт : 448 Кбит/сек
    Каналы : 6 каналов
    Расположение каналов : Front: L C R, Side: L R, LFE
    Частота : 48, 0 КГц
    Частота кадров : 31, 250 кадров/сек (1536 SPF)
    Битовая глубина : 16 бит
    Метод сжатия : С потерями
    Размер потока : 367 Мбайт (6%)
    Язык : Английский
    Service Kind : Complete Main
    Default : Нет
    Forced : Нет
    Текст #1
    Идентификатор : 7
    Формат : UTF-8
    Идентификатор кодека : S_TEXT/UTF8
    Идентификатор кодека/Информация : UTF-8 Plain Text
    Язык : Русский
    Default : Нет
    Forced : Нет
    Текст #2
    Идентификатор : 8
    Формат : UTF-8
    Идентификатор кодека : S_TEXT/UTF8
    Идентификатор кодека/Информация : UTF-8 Plain Text
    Язык : Английский
    Default : Нет
    Forced : Нет
    Меню
    00: 00: 00.000 : en: The Star Spangled Banner
    00: 04: 38.612 : en: Credits
    00: 07: 00.587 : en: Remotes and Rituals
    00: 11: 45.413 : en: Bedtime Joint Time
    00: 16: 44.712 : en: Storm Jitters
    00: 21: 24.950 : en: They\'re Here
    00: 24: 33.639 : en: TV People
    00: 28: 43.388 : en: Moving Objects
    00: 34: 14.761 : en: Robbie vs. The Tree
    00: 37: 16.067 : en: Taking Carol Anne
    00: 42: 46.397 : en: Spinning Room
    00: 45: 46.619 : en: Calling Carol Anne
    00: 50: 25.856 : en: She Just Moved Through Me
    00: 53: 35.045 : en: The Light
    00: 59: 45.624 : en: Marty\'s Midnight Snack
    01: 03: 12.455 : en: Night Visitors
    01: 07: 24.040 : en: Departures
    01: 11: 13.769 : en: Expansion Plots
    01: 14: 10.946 : en: Enter Tangina
    01: 16: 40.930 : en: Window to the Next Plane
    01: 22: 01.583 : en: Run to the Light
    01: 24: 56.758 : en: Hope Across Dimensions
    01: 29: 06.007 : en: Reunion
    01: 33: 03.244 : en: Moving Day
    01: 35: 37.231 : en: Bath and Bedtime
    01: 38: 56.264 : en: The Clown and The Beast
    01: 42: 18.299 : en: From Evil\'s Grasp
    01: 45: 47.675 : en: You Left the Bodies!
    01: 47: 38.619 : en: Escapees from Implosion
    01: 49: 40.741 : en: End Credits

    Скриншоты для ознакомления





    Все одноименные релизы в Клубе
    Время раздачи: 7/24 (до появления первых 3-5 скачавших)


    Онлайн видео Полтергейст



    Полтергейст/Poltergeist (1982) BDRip [H.264/720p]
    Рейтинг →
     (голосов: 1, оценка 3/5, голосовать можно 1 раз )

    Другие торренты по теме:

  • Полтергейст / Poltergeist (2015) CamRip скачать через торрент бесплатно
  • Полтергейст / Poltergeist (2015) HDTVRip [Звук с CamRip] скачать через торрент бесплатно
  • Полтергейст / Poltergeist (2015) HDTVRip [Звук с CamRip] скачать через торрент бесплатно
  • Полтергейст / Poltergeist (2015) HDTVRip [H.264 / 1080p-LQ] [Звук с CamRip] скачать через торрент бесплатно
  • Полтергейст / Poltergeist (2015) HDTVRip [H.264 / 720p-LQ] [Звук с CamRip] скачать через торрент бесплатно
  • Полтергейст / Poltergeist (2015) HDTVRip [H.264 / 720p-LQ] [Line] скачать через торрент бесплатно
  • Полтергейст / Poltergeist (2015) HDTVRip [Line] скачать через торрент бесплатно
  • Полтергейст / Poltergeist (2015) HDTVRip [H.264 / 1080p] [Line] скачать через торрент бесплатно


    • Комментарии (0):

      Информация

      Информация

        Посетители, находящиеся в группе Гости, не могут оставлять комментарии в данной новости.

        ↓ Меню




        ↓ Опрос

        Вы добавили сайт в закладки?
        Да
        Нет


        Top 10 за месяц (Фильмы)