.
Авторизация | Регистрация
Хочешь лучшие торренты? Добавь свой email!
Добавить

Торрент скачать бесплатно

  • support: webmaster@btracker.org
» » Драгонвик / Dragonwyck (1946) BDRemux [H.264 / 1080p][VO] торрент скачать бесплатно


    Драгонвик / Dragonwyck (1946) BDRemux [H.264 / 1080p][VO] торрент скачать бесплатно

    Опубликовал: Админ | Дата: 31-05-2018, 05:00 | .torrent скачали: 0

    Драгонвик / Dragonwyck (1946) BDRemux [H.264 / 1080p][VO]Производство: США, 20th Century Fox Film Corporation
    Жанр: Триллер, Драма, Мелодрама, Детектив
    Режиссер: Джозеф Лео Манкевич

    Актеры
    Джин Тирни, Винсент Прайс, Гленн Ланган, Уолтер Хьюстон, Энн Ревер, Спринг Байинтон, Конни Маршалл, Вивьенн Осборн, Джессика Тэнди

    Описание

    1844 год. Абигейл Уэллс, живущая с мужем и детьми на ферме в Коннектикуте, получает от своего очень дальнего богатого родственника Николаса ван Райна письмо с предложением прислать кого-либо из дочерей, чтобы составить компанию маленькой Кэтрин ван Райн. Ван Райны потомки первых голландских поселенцев владеют большим участком земли в долине реки Гудзон и проживают в старинном замке Драгонвик.
    Отец семейства Эфраим Уэллс, человек строгих правил, не хочет отпускать никого из дочерей к незнакомым людям, всё же поддается на уговоры 18-летней Миранды и дает согласие на её переезд в Драгонвик. Мечтательная девушка в восторге от красот природы и роскошной жизни в поместье и вскоре влюбляется в галантного и благородного Николаса. Она не замечает, что семейная жизнь ван Райнов отнюдь не счастлива и скрывает мрачные тайны...
    Экранизация одноимённого романа Ани Сетон.

    Релиз от: NNMClub
    Продолжительность: 01: 42: 49
    Качество видео: BDRemux
    Перевод: Любительский одноголосый закадровый
    Автор перевода: Black Queen
    Озвучка: Nocknarroys
    Субтитры: русские, английские
    Видео: AVC/H.264, 1920х1080, ~30 Mb/s
    Аудио: 1 AC3, 2 ch, 192 kbps - Русский
    Аудио: 2 DTS-HD MA, 2 ch, 1991 kbps - Английский
    Аудио: 3 AC3, 2 ch, 192 kbps - Commentary wfilm historian Steve Haberman and documentary filmmaker Constantine Nasr

    Complete name : Dragonwyck.1946.BDRemux.mkv
    Format : Matroska
    Format version : Version 4/Version 2
    File size : 23.2 GiB
    Duration : 1 h 42 min
    Overall bit rate mode : Variable
    Overall bit rate : 32.3 Mb/s
    Movie name : Dragonwyck.1946.BDRemux Atomsk
    Encoded date : UTC 2018-05-30 08: 54: 52
    Writing application : mkvmerge v8.3.0 (\'Over the Horizon\') 64bit
    Writing library : libebml v1.3.1 + libmatroska v1.4.2
    Video
    ID : 1
    Format : AVC
    Format/Info : Advanced Video Codec
    Format profile : High@L4.1
    Format settings : CABAC/4 Ref Frames
    Format settings, CABAC : Yes
    Format settings, ReFrames : 4 frames
    Codec ID : V_MPEG4/ISO/AVC
    Duration : 1 h 42 min
    Bit rate mode : Variable
    Bit rate : 29.9 Mb/s
    Maximum bit rate : 35.0 Mb/s
    Width : 1 920 pixels
    Height : 1 080 pixels
    Display aspect ratio : 16: 9
    Frame rate mode : Constant
    Frame rate : 23.976 (24000/1001) FPS
    Color space : YUV
    Chroma subsampling : 4: 2: 0
    Bit depth : 8 bits
    Scan type : Progressive
    Bits/(Pixel*Frame) : 0.601
    Stream size : 21.5 GiB (92%)
    Title : Dragonwyck.1946.BDRemux
    Language : English
    Default : Yes
    Forced : No
    Audio #1
    ID : 2
    Format : AC-3
    Format/Info : Audio Coding 3
    Codec ID : A_AC3
    Duration : 1 h 42 min
    Bit rate mode : Constant
    Bit rate : 192 kb/s
    Channel(s) : 2 channels
    Channel positions : Front: L R
    Sampling rate : 48.0 kHz
    Frame rate : 31.250 FPS (1536 SPF)
    Bit depth : 16 bits
    Compression mode : Lossy
    Stream size : 141 MiB (1%)
    Title : AC3 2.0 @ 192 kbps - VO, Nocknarroys (перевод Black Queen)
    Language : Russian
    Service kind : Complete Main
    Default : Yes
    Forced : No
    Audio #2
    ID : 3
    Format : DTS
    Format/Info : Digital Theater Systems
    Format profile : MA/Core
    Codec ID : A_DTS
    Duration : 1 h 42 min
    Bit rate mode : Variable/Constant
    Bit rate : 1 991 kb/s/1 509 kb/s
    Channel(s) : 2 channels
    Channel positions : Front: L R
    Sampling rate : 48.0 kHz
    Frame rate : 93.750 FPS (512 SPF)
    Bit depth : 24 bits
    Compression mode : Lossless/Lossy
    Stream size : 1.43 GiB (6%)
    Title : DTS-HD MA 2.0 @ 1991 kbps - Original
    Language : English
    Default : No
    Forced : No
    Audio #3
    ID : 4
    Format : AC-3
    Format/Info : Audio Coding 3
    Codec ID : A_AC3
    Duration : 1 h 42 min
    Bit rate mode : Constant
    Bit rate : 256 kb/s
    Channel(s) : 2 channels
    Channel positions : Front: L R
    Sampling rate : 48.0 kHz
    Frame rate : 31.250 FPS (1536 SPF)
    Bit depth : 16 bits
    Compression mode : Lossy
    Stream size : 188 MiB (1%)
    Title : Commentary wfilm historian Steve Haberman and documentary filmmaker Constantine Nasr
    Language : English
    Service kind : Complete Main
    Default : No
    Forced : No
    Text #1
    ID : 5
    Format : UTF-8
    Codec ID : S_TEXT/UTF8
    Codec ID/Info : UTF-8 Plain Text
    Duration : 1 h 42 min
    Bit rate : 126 b/s
    Count of elements : 1348
    Stream size : 94.8 KiB (0%)
    Title : перевод Black Queen
    Language : Russian
    Default : No
    Forced : No
    Text #2
    ID : 6
    Format : UTF-8
    Codec ID : S_TEXT/UTF8
    Codec ID/Info : UTF-8 Plain Text
    Duration : 1 h 41 min
    Bit rate : 82 b/s
    Count of elements : 1459
    Stream size : 61.3 KiB (0%)
    Title : SDH
    Language : English
    Default : No
    Forced : No
    Menu
    00: 00: 00.000 : en: Main Titles
    00: 01: 01.000 : en: Dear Cousin
    00: 04: 24.514 : en: New York City
    00: 07: 35.037 : en: A Different Viewpoint
    00: 13: 36.315 : en: The Van Ryn Family
    00: 18: 23.101 : en: Servants\' Superstitions
    00: 22: 06.074 : en: 4th of July
    00: 25: 41.540 : en: The Anti-Rent Movement
    00: 30: 12.769 : en: Jast Plain Wells
    00: 34: 09.839 : en: His Favorite Oleandr
    00: 37: 20.196 : en: Sudden Change of Mind
    00: 41: 15.473 : en: Like a Lullaby
    00: 46: 15.564 : en: The Last Van Ryn
    00: 51: 05.771 : en: Homeward Bound
    00: 57: 05.255 : en: Nose in The Air
    00: 59: 30.149 : en: To Marry a Dream
    01: 03: 08.576 : en: Strange Little Creature
    01: 06: 47.586 : en: God Knows
    01: 13: 16.683 : en: Help Me!
    01: 18: 04.930 : en: Just in Time
    01: 21: 09.364 : en: The Room in the Tower
    01: 27: 08.806 : en: A Blackness in the House
    01: 31: 52.381 : en: Beautiful - But Deadly
    01: 36: 00.754 : en: The Patron
    01: 40: 18.178 : en: Not So Far Away

    Скриншоты для ознакомления





    Все одноименные релизы в Клубе
    Время раздачи: 24/7 (круглосуточно) (до появления первых 3-5 скачавших)


    Драгонвик/Dragonwyck (1946) BDRemux [H.264/1080p][VO]
    Рейтинг →
     (голосов: 1, оценка 5/5, голосовать можно 1 раз )

    Другие торренты по теме:



      Комментарии (0):

      Информация

      Информация

        Посетители, находящиеся в группе Гости, не могут оставлять комментарии в данной новости.

        ↓ Меню




        ↓ Опрос

        Вы добавили сайт в закладки?
        Да
        Нет


        Top 10 за месяц (Фильмы)