.
Авторизация | Регистрация
Хочешь лучшие торренты? Добавь свой email!
Добавить

Торрент скачать бесплатно

  • support: webmaster@btracker.org
» » Усадьба Хауардс-Энд / Howards End (1992) UHD BDRemux [H.265 / 2160p] [4K, HDR, 10-bit] торрент скачать бесплатно


    Усадьба Хауардс-Энд / Howards End (1992) UHD BDRemux [H.265 / 2160p] [4K, HDR, 10-bit] торрент скачать бесплатно

    Опубликовал: Админ | Дата: 31-05-2018, 05:00 | .torrent скачали: 0

    Усадьба Хауардс-Энд / Howards End (1992) UHD BDRemux [H.265 / 2160p] [4K, HDR, 10-bit]Производство: Великобритания, Япония, США/Cinema Ten
    Жанр: драма, мелодрама
    Режиссер: Джеймс Айвори
    Продюсер: Исмаил Мерчант, Пол Брэдли, Дональд Розенфельд

    Актеры
    Энтони Хопкинс, Ванесса Редгрейв, Хелена Бонем Картер, Эмма Томпсон, Джеймс Уилби, Сэмюэл Уэст, Джемма Рэдгрэйв, Никола Даффетт, Сьюзи Линдеман, Эдриэн Росс Магенти, Прунелла Скэйлис

    Описание

    Действие происходит в Англии в начале XX века. История рассказывает о трёх семействах, представляющих три разных класса. Уилкоксы — богатые капиталисты, представляют класс, заменяющий старую аристократию. Сёстры Шлегель представляют просвещённую буржуазию. Басты принадлежат к низам среднего класса. Фильм посредством показа перехода дома Говардс-Энд от одного владельца к другому отвечает на вопрос Кто унаследует Англию?.

    Возраст: 12+ (зрителям, достигшим 12 лет)
    Рейтинг MPAA: PG (рекомендуется присутствие родителей)

    Релиз от: SpaceHD13
    Продолжительность: 02: 22: 34
    Качество: UHD BDRemux (HDR)
    Перевод: Профессиональный многоголосый, авторский (Алексей Михалев)
    Субтитры: Русские, немецкие
    Видео: HEVC/H.265, 3840x2160, (16: 9), 60.9 Mbps, 23.976 fps
    Аудио 1: AC3, 2 ch, 192 kbps - Русский, MVO
    Аудио 2: AC3, 1 ch, 128 kbps - Русский, MVO
    Аудио 3: AC3, 1 ch, 128 kbps - Русский, AVO - Алексей Михалев
    Аудио 4: DTS-HD MA, 6 ch, 2976 kbps - Английский
    Аудио 5: AC3, 2 ch, 224 kbps - Английский
    Аудио 6: DTS-HD MA, 6 ch, 3944 kbps - Немецкий
    Аудио 7: AC3, 2 ch, 224 kbps - Немецкий
    Диск на Blu-ray.com
    Просмотр 4K HDR-контента на ПК
    Complete name : D: TESTHowards.End.1992.2160p.BluRay.REMUX.HEVC.DTS-HD.MA.5.1.SpaceHD13.mkv
    Format : Matroska
    Format version : Version 4/Version 2
    File size : 68.6 GiB
    Duration : 2 h 22 min
    Overall bit rate : 68.8 Mb/s
    Movie name : Howards.End.1992.2160p.BluRay.REMUX.HEVC.DTS-HD.MA.5.1-SpaceHD13
    Encoded date : UTC 2018-03-12 19: 27: 01
    Writing application : mkvmerge v20.0.0 (\'I Am The Sun\') 64-bit
    Writing library : libebml v1.3.5 + libmatroska v1.4.8
    Video
    ID : 1
    Format : HEVC
    Format/Info : High Efficiency Video Coding
    Commercial name : HDR10
    Format profile : Main10@L5.1@High
    Codec ID : V_MPEGH/ISO/HEVC
    Duration : 2 h 22 min
    Bit rate : 60.9 Mb/s
    Width : 3 840 pixels
    Height : 2 160 pixels
    Display aspect ratio : 16: 9
    Frame rate mode : Constant
    Frame rate : 23.976 (24000/1001) FPS
    Original frame rate : 24.000 FPS
    Standard : Component
    Color space : YUV
    Chroma subsampling : 4: 2: 0 (Type 2)
    Bit depth : 10 bits
    Bits/(Pixel*Frame) : 0.306
    Stream size : 60.8 GiB (89%)
    Title : Howards.End.1992.2160p.BluRay.REMUX.HEVC.DTS-HD.MA.5.1-SpaceHD13
    Language : Russian
    Default : Yes
    Forced : No
    Color range : Limited
    Color primaries : BT.2020
    Transfer characteristics : PQ
    Matrix coefficients : BT.2020 non-constant
    Mastering display color pri : Display P3
    Mastering display luminance : min: 0.0050 cd/m2, max: 1000 cd/m2
    Audio #1
    ID : 2
    Format : AC-3
    Format/Info : Audio Coding 3
    Codec ID : A_AC3
    Duration : 2 h 22 min
    Bit rate mode : Constant
    Bit rate : 192 kb/s
    Channel(s) : 2 channels
    Channel positions : Front: L R
    Sampling rate : 48.0 kHz
    Frame rate : 31.250 FPS (1536 SPF)
    Bit depth : 16 bits
    Compression mode : Lossy
    Delay relative to video : 5 s 690 ms
    Stream size : 196 MiB (0%)
    Title : Howards.End.1992.2160p.BluRay.REMUX.HEVC.DTS-HD.MA.5.1-SpaceHD13.RUS
    Language : Russian
    Service kind : Complete Main
    Default : Yes
    Forced : No
    Audio #2
    ID : 3
    Format : AC-3
    Format/Info : Audio Coding 3
    Codec ID : A_AC3
    Duration : 2 h 22 min
    Bit rate mode : Constant
    Bit rate : 128 kb/s
    Channel(s) : 1 channel
    Channel positions : Front: C
    Sampling rate : 48.0 kHz
    Frame rate : 31.250 FPS (1536 SPF)
    Bit depth : 16 bits
    Compression mode : Lossy
    Delay relative to video : 5 s 690 ms
    Stream size : 131 MiB (0%)
    Title : Howards.End.1992.2160p.BluRay.REMUX.HEVC.DTS-HD.MA.5.1-SpaceHD13.RUS
    Language : Russian
    Service kind : Complete Main
    Default : No
    Forced : No
    Audio #3
    ID : 4
    Format : AC-3
    Format/Info : Audio Coding 3
    Codec ID : A_AC3
    Duration : 2 h 22 min
    Bit rate mode : Constant
    Bit rate : 128 kb/s
    Channel(s) : 1 channel
    Channel positions : Front: C
    Sampling rate : 48.0 kHz
    Frame rate : 31.250 FPS (1536 SPF)
    Bit depth : 16 bits
    Compression mode : Lossy
    Delay relative to video : 5 s 690 ms
    Stream size : 131 MiB (0%)
    Title : Howards.End.1992.2160p.BluRay.REMUX.HEVC.DTS-HD.MA.5.1-SpaceHD13.Михалев
    Language : Russian
    Service kind : Complete Main
    Default : No
    Forced : No
    Audio #4
    ID : 5
    Format : DTS
    Format/Info : Digital Theater Systems
    Format profile : MA/Core
    Codec ID : A_DTS
    Duration : 2 h 22 min
    Bit rate mode : Variable/Constant
    Bit rate : 2 976 kb/s/1 509 kb/s
    Channel(s) : 6 channels
    Channel positions : Front: L C R, Side: L R, LFE
    Sampling rate : 48.0 kHz
    Frame rate : 93.750 FPS (512 SPF)
    Bit depth : 24 bits
    Compression mode : Lossless/Lossy
    Stream size : 2.96 GiB (4%)
    Title : Howards.End.1992.2160p.BluRay.REMUX.HEVC.DTS-HD.MA.5.1-SpaceHD13
    Language : English
    Default : No
    Forced : No
    Audio #5
    ID : 6
    Format : AC-3
    Format/Info : Audio Coding 3
    Codec ID : A_AC3
    Duration : 2 h 22 min
    Bit rate mode : Constant
    Bit rate : 224 kb/s
    Channel(s) : 2 channels
    Channel positions : Front: L R
    Sampling rate : 48.0 kHz
    Frame rate : 31.250 FPS (1536 SPF)
    Bit depth : 16 bits
    Compression mode : Lossy
    Stream size : 229 MiB (0%)
    Title : Howards.End.1992.2160p.BluRay.REMUX.HEVC.DTS-HD.MA.5.1-SpaceHD13
    Language : English
    Service kind : Complete Main
    Default : No
    Forced : No
    Audio #6
    ID : 7
    Format : DTS
    Format/Info : Digital Theater Systems
    Format profile : MA/Core
    Codec ID : A_DTS
    Duration : 2 h 22 min
    Bit rate mode : Variable/Constant
    Bit rate : 3 944 kb/s/1 509 kb/s
    Channel(s) : 6 channels
    Channel positions : Front: L C R, Side: L R, LFE
    Sampling rate : 48.0 kHz
    Frame rate : 93.750 FPS (512 SPF)
    Bit depth : 24 bits
    Compression mode : Lossless/Lossy
    Stream size : 3.93 GiB (6%)
    Title : Howards.End.1992.2160p.BluRay.REMUX.HEVC.DTS-HD.MA.5.1-SpaceHD13
    Language : German
    Default : No
    Forced : No
    Audio #7
    ID : 8
    Format : AC-3
    Format/Info : Audio Coding 3
    Codec ID : A_AC3
    Duration : 2 h 22 min
    Bit rate mode : Constant
    Bit rate : 224 kb/s
    Channel(s) : 2 channels
    Channel positions : Front: L R
    Sampling rate : 48.0 kHz
    Frame rate : 31.250 FPS (1536 SPF)
    Bit depth : 16 bits
    Compression mode : Lossy
    Stream size : 229 MiB (0%)
    Title : Howards.End.1992.2160p.BluRay.REMUX.HEVC.DTS-HD.MA.5.1-SpaceHD13
    Language : German
    Service kind : Complete Main
    Default : No
    Forced : No
    Text #1
    ID : 9
    Format : UTF-8
    Codec ID : S_TEXT/UTF8
    Codec ID/Info : UTF-8 Plain Text
    Duration : 2 h 15 min
    Bit rate : 136 b/s
    Count of elements : 1888
    Stream size : 136 KiB (0%)
    Title : Howards.End.1992.2160p.BluRay.REMUX.HEVC.DTS-HD.MA.5.1-SpaceHD13
    Language : Russian
    Default : Yes
    Forced : No
    Text #2
    ID : 10
    Format : PGS
    Muxing mode : zlib
    Codec ID : S_HDMV/PGS
    Codec ID/Info : Picture based subtitle format used on BDs/HD-DVDs
    Duration : 2 h 21 min
    Bit rate : 46.9 kb/s
    Count of elements : 3538
    Stream size : 47.5 MiB (0%)
    Title : German-PGS
    Language : German
    Default : No
    Forced : No
    Menu
    00: 00: 00.000 : en: Chapter 1
    00: 12: 02.250 : en: Chapter 2
    00: 26: 17.458 : en: Chapter 3
    00: 34: 49.000 : en: Chapter 4
    00: 45: 58.083 : en: Chapter 5
    00: 57: 51.250 : en: Chapter 6
    01: 09: 34.000 : en: Chapter 7
    01: 23: 04.750 : en: Chapter 8
    01: 32: 52.875 : en: Chapter 9
    01: 46: 50.958 : en: Chapter 10
    01: 55: 54.041 : en: Chapter 11
    02: 10: 49.708 : en: Chapter 12

    Скриншоты для ознакомления


    Релизы фильма Усадьба Хауардс-Энд/Howards End на NNM Club
    Время раздачи: с 9: 00 до 23: 00


    Онлайн видео Усадьба Хауардс-Энд



    Усадьба Хауардс-Энд/Howards End (1992) UHD BDRemux [H.265/2160p] [4K, HDR, 10-bit]
    Рейтинг →
     (голосов: 1, оценка 4/5, голосовать можно 1 раз )

    Другие торренты по теме:

  • Усадьба Хауардс-Энд / Howards End (1992) DVDRip
  • Усадьба Хауардс-Энд / Howards End (1992) BDRip [H.264 / 1080p]
  • Усадьба Хауардс-Энд / Howards End (1992) BDRip [H.264 / 720p]
  • Усадьба Хауардс-Энд / Howards End (1992) BDRip [H.264]


    • Комментарии (0):

      Информация

      Информация

        Посетители, находящиеся в группе Гости, не могут оставлять комментарии в данной новости.

        ↓ Меню




        ↓ Опрос

        Вы добавили сайт в закладки?
        Да
        Нет


        Top 10 за месяц (Фильмы)