.
Авторизация | Регистрация
Хочешь лучшие торренты? Добавь свой email!
Добавить

Торрент скачать бесплатно

  • support: webmaster@btracker.org
» » Tomb Raider: Лара Крофт / Tomb Raider (2018) WEB-DLRip [H.264 / 720p-LQ] [Звук c TS] [AD] торрент скачать бесплатно


    Tomb Raider: Лара Крофт / Tomb Raider (2018) WEB-DLRip [H.264 / 720p-LQ] [Звук c TS] [AD] торрент скачать бесплатно

    Опубликовал: Админ | Дата: 31-05-2018, 05:00 | .torrent скачали: 2

    Tomb Raider: Лара Крофт / Tomb Raider (2018) WEB-DLRip [H.264 / 720p-LQ] [Звук c TS] [AD]Производство: Великобритания, США | GK Films, Metro-Goldwyn-Mayer, Warner Bros. Pictures
    Жанр: Боевик, приключения
    Режиссер: Роар Утхауг

    Актеры
    Алисия Викандер, Доминик Уэст, Уолтон Гоггинс, Дэниэл Ву, Кристин Скотт Томас, Дерек Джекоби, Александр Виллауме, Тамер Барджаг, Эдриан Коллинз, Кинэн Эррисон...

    Описание

    Лара Крофт — весьма самостоятельная дочь эксцентричного искателя приключений, который пропал, едва она стала подростком. Теперь ей двадцать один, она бесцельно проживает свою жизнь, курьером рассекая на байке по забитым улицам восточного Лондона. Решительно настроенная пробиться сама, она отказывается брать на себя руководство империей отца, не веря в то, что он действительно пропал. Слыша советы о том, что ей нужно смириться с этим и жить дальше после семи лет бесплодных поисков, Лара уже и сама не понимает, что же заставляет ее распутывать обстоятельства его исчезновения.

    Возраст: 16+ (зрителям, достигшим 16 лет)
    Рейтинг MPAA: PG-13 (детям до 13 лет просмотр нежелателен)
    Дата мировой премьеры: 2 марта 2018
    Дата российской премьеры: 15 марта 2018, Каро-Премьер
    Продолжительность: 01: 59: 56
    Качество видео: WEB-DLRip
    Перевод: Дублированный (Звук c TS)
    Субтитры: Отсутствуют
    Реклама: Аудио, видео и текстовые вставки
    Видео: AVC/H.264, 1280x534 (2.40: 1), ~5013 kbps, 23.976 fps
    Аудио: AC3, 2 ch, 48.0 kHz, 384 kbps cbr

    General
    Unique ID : 245057657158524036395228240811743922185 (0xB85C63541E5DC28197BEE88AAD0A4809)
    Complete name : D: Tomb_Raider_2018_WEB-DL_720p_Dub_TS.mkv
    Format : Matroska
    Format version : Version 2
    File size : 4.52 GiB
    Duration : 1 h 59 min
    Overall bit rate mode : Variable
    Overall bit rate : 5 399 kb/s
    Encoded date : UTC 2018-05-29 05: 54: 05
    Writing application : mkvmerge v8.3.0 (\'Over the Horizon\') 64bit
    Writing library : libebml v1.3.1 + libmatroska v1.4.2
    Video
    ID : 1
    Format : AVC
    Format/Info : Advanced Video Codec
    Format profile : High@L4.1
    Format settings, CABAC : Yes
    Format settings, ReFrames : 4 frames
    Codec ID : V_MPEG4/ISO/AVC
    Duration : 1 h 59 min
    Bit rate mode : Variable
    Bit rate : 5 013 kb/s
    Maximum bit rate : 5 500 kb/s
    Width : 1 280 pixels
    Height : 534 pixels
    Display aspect ratio : 2.40: 1
    Frame rate mode : Constant
    Frame rate : 23.976 (24000/1001) FPS
    Standard : Component
    Color space : YUV
    Chroma subsampling : 4: 2: 0
    Bit depth : 8 bits
    Scan type : Progressive
    Bits/(Pixel*Frame) : 0.306
    Stream size : 4.20 GiB (93%)
    Default : Yes
    Forced : No
    Color range : Limited
    Color primaries : BT.709
    Transfer characteristics : BT.709
    Matrix coefficients : BT.709
    Audio
    ID : 2
    Format : AC-3
    Format/Info : Audio Coding 3
    Format settings, Endianness : Big
    Codec ID : A_AC3
    Duration : 1 h 59 min
    Bit rate mode : Constant
    Bit rate : 384 kb/s
    Channel(s) : 2 channels
    Channel positions : Front: L R
    Sampling rate : 48.0 kHz
    Frame rate : 31.250 FPS (1536 spf)
    Bit depth : 16 bits
    Compression mode : Lossy
    Stream size : 329 MiB (7%)
    Service kind : Complete Main
    Default : Yes
    Forced : No

    Скриншоты для ознакомления



    Все одноименные релизы в Клубе
    Время раздачи: 24/7 (до появления первых 3-5 скачавших)


    Онлайн видео Tomb Raider: Лара Крофт



    Tomb Raider: Лара Крофт/Tomb Raider (2018) WEB-DLRip [H.264/720p-LQ] [Звук c TS] [AD]
    Рейтинг →
     (голосов: 1, оценка 4/5, голосовать можно 1 раз )

    Другие торренты по теме:

  • Tomb Raider: The Angel of Darkness / Tomb Raider: Ангел Тьмы (2003) [En / Ge] (20171016) License GOG
  • Tomb Raider: Лара Крофт / Tomb Raider (2018) WEB-DL [H.264 / 1080p-LQ] [EN / EN Sub]
  • Tomb Raider: Лара Крофт / Tomb Raider (2018) WEB-DLRip [H.264 / 1080p-LQ] [MVO, AD]
  • Tomb Raider: Лара Крофт / Tomb Raider (2018) HDRip [H.264 / 720p-LQ] [MVO]
  • Tomb Raider: Лара Крофт / Tomb Raider (2018) HDRip [MVO]
  • Tomb Raider: Лара Крофт / Tomb Raider (2018) WEB-DL [H.264 / 1080p-LQ] [MVO]
  • Tomb Raider: Лара Крофт / Tomb Raider (2018) BDRip [H.264 / 720p] [MVO]
  • Tomb Raider: Лара Крофт / Tomb Raider (2018) BDRip [H.264 / 1080p] [MVO]


    • Комментарии (0):

      Информация

      Информация

        Посетители, находящиеся в группе Гости, не могут оставлять комментарии в данной новости.

        ↓ Меню




        ↓ Опрос

        Вы добавили сайт в закладки?
        Да
        Нет


        Top 10 за месяц (Фильмы)