.
Авторизация | Регистрация
Хочешь лучшие торренты? Добавь свой email!
Добавить

Торрент скачать бесплатно

  • support: webmaster@btracker.org
» » Точка невозврата / High Wire Act (2018) WEB-DL [H.264 / 1080p-LQ] торрент скачать бесплатно


    Точка невозврата / High Wire Act (2018) WEB-DL [H.264 / 1080p-LQ] торрент скачать бесплатно

    Опубликовал: Админ | Дата: 31-05-2018, 05:00 | .torrent скачали: 0

    Точка невозврата / High Wire Act (2018) WEB-DL [H.264 / 1080p-LQ]Производство: США
    Жанр: Драма, Триллер
    Режиссер: Брэд Андерсон

    Актеры
    Розамунд Пайк, Джон Хэмм, Марк Пеллегрино, Дин Норрис, Шей Уигэм, Дуглас Ходж, Джонатан Койн, Кейт Флитвуд, Лейла Бехти, Алон Абутбул

    Описание

    Разгар Ливанской войны. Интриги, предательство, грязные компроматы, нравственное падение, жертвенность и любовь, боль и надежда… На руках героя умирает жена, подстреленная террористами. Через десять лет он, преодолев ненависть и отчаяние, возвращается в Бейрут, чтобы вызволить из плена давнего друга, захваченного в плен боевиками.

    Возраст: 18+ (зрителям, достигшим 18 лет. запрещено для детей)
    Рейтинг MPAA: R (лицам до 17 лет обязательно присутствие взрослого)
    Дата мировой премьеры: 22 января 2018
    Дата российской премьеры: 19 апреля 2018, Парадиз
    Релиз от: ExKinoRay
    Продолжительность: 01: 44: 50
    Качество видео: WEB-DL
    Перевод: Дублированный | iTunes
    Субтитры: Отсутствуют
    Видео: AVC/H.264, 1920x804, 4635 Kbps
    Аудио: 48 kHz, AC3, 6 ch, 384 Kbps

    General
    Unique ID : 202714081841411511116797679698595903375 (0x98814FE1A3AF5BA96B61920EC509778F)
    Complete name : D: КиноHigh.Wire.Act.2018.WEB-DL.1080p.ExKinoRay.mkv
    Format : Matroska
    Format version : Version 4/Version 2
    File size : 3.68 GiB
    Duration : 1 h 44 min
    Overall bit rate : 5 020 kb/s
    Movie name : High Wire Act 2018 from ExKinoRay
    Encoded date : UTC 2018-05-29 20: 04: 39
    Writing application : mkvmerge v22.0.0 (\'At The End Of The World\') 64-bit
    Writing library : libebml v1.3.5 + libmatroska v1.4.8
    Video
    ID : 1
    Format : AVC
    Format/Info : Advanced Video Codec
    Format profile : High@L4
    Format settings : CABAC/5 Ref Frames
    Format settings, CABAC : Yes
    Format settings, ReFrames : 5 frames
    Codec ID : V_MPEG4/ISO/AVC
    Duration : 1 h 44 min
    Bit rate : 4 635 kb/s
    Width : 1 920 pixels
    Height : 804 pixels
    Display aspect ratio : 2.40: 1
    Frame rate mode : Constant
    Frame rate : 25.000 FPS
    Color space : YUV
    Chroma subsampling : 4: 2: 0
    Bit depth : 8 bits
    Scan type : Progressive
    Bits/(Pixel*Frame) : 0.120
    Stream size : 3.39 GiB (92%)
    Language : English
    Default : Yes
    Forced : No
    Color range : Limited
    Color primaries : BT.709
    Transfer characteristics : BT.709
    Matrix coefficients : BT.709
    Audio
    ID : 2
    Format : AC-3
    Format/Info : Audio Coding 3
    Codec ID : A_AC3
    Duration : 1 h 44 min
    Bit rate mode : Constant
    Bit rate : 384 kb/s
    Channel(s) : 6 channels
    Channel positions : Front: L C R, Side: L R, LFE
    Sampling rate : 48.0 kHz
    Frame rate : 31.250 FPS (1536 SPF)
    Bit depth : 16 bits
    Compression mode : Lossy
    Delay relative to video : -40 ms
    Stream size : 288 MiB (8%)
    Title : iTunes
    Language : Russian
    Service kind : Complete Main
    Default : Yes
    Forced : Yes
    Menu
    00: 00: 00.000 : en: Р“Рава 1
    00: 04: 23.920 : en: Р“Рава 2
    00: 12: 31.720 : en: Р“Рава 3
    00: 16: 16.080 : en: Р“Рава 4
    00: 20: 04.440 : en: Р“Рава 5
    00: 28: 25.960 : en: Р“Рава 6
    00: 32: 43.239 : en: Р“Рава 7
    00: 40: 05.119 : en: Р“Рава 8
    00: 48: 11.559 : en: Р“Рава 9
    00: 57: 55.838 : en: Р“Рава 10
    01: 07: 42.798 : en: Р“Рава 11
    01: 18: 27.398 : en: Р“Рава 12
    01: 28: 04.238 : en: Р“Рава 13
    01: 34: 36.118 : en: Р“Рава 14
    01: 39: 38.157 : en: Р“Рава 15

    Скриншоты для ознакомления



    Все одноименные релизы в Клубе
    Время раздачи: как минимум до появления первых 3-5 скачавших (до появления первых 3-5 скачавших)


    Онлайн видео Точка невозврата



    Точка невозврата/High Wire Act (2018) WEB-DL [H.264/1080p-LQ]
    Рейтинг →
     (голосов: 1, оценка 4/5, голосовать можно 1 раз )

    Другие торренты по теме:



      Комментарии (0):

      Информация

      Информация

        Посетители, находящиеся в группе Гости, не могут оставлять комментарии в данной новости.

        ↓ Меню




        ↓ Опрос

        Вы добавили сайт в закладки?
        Да
        Нет


        Top 10 за месяц (Фильмы)