.
Авторизация | Регистрация
Хочешь лучшие торренты? Добавь свой email!
Добавить

Торрент скачать бесплатно

  • support: webmaster@btracker.org
» » Ограбление в ураган / The Hurricane Heist (2018) BDRip [H.264 / 720p-LQ] торрент скачать бесплатно


    Ограбление в ураган / The Hurricane Heist (2018) BDRip [H.264 / 720p-LQ] торрент скачать бесплатно

    Опубликовал: Админ | Дата: 31-05-2018, 05:00 | .torrent скачали: 0

    Ограбление в ураган / The Hurricane Heist (2018) BDRip [H.264 / 720p-LQ]Производство: США/Dream Team Films Pvt. Ltd.
    Жанр: Боевик, Триллер
    Режиссер: Роб Коэн
    Продюсер: Карен Элиз Болдуин, Марк Дэймон, Моше Дайамант

    Актеры
    Тоби Кеббелл, Мэгги Грэйс, Райан Квантен, Ралф Айнесон, Мелисса Болона, Бен Кросс, Джэми Эндрю Катлер, Кристиан Райан Контрерас, Эд Бирч

    Описание

    На побережье Америки стремительно надвигается ураган. Тем временем банда воров планирует идеальное ограбление: украсть 600 миллионов долларов из казначейства США, воспользовавшись стихийным бедствием как прикрытием. Но один фактор грабители не учли — честную и подготовленную работницу казначейства. Женщина вовремя объединяется с исследователем ураганов на специализированном бронированном автомобиле, и теперь они — единственные, кто может помешать ворам осуществить план ограбления. Почти единственные, ведь для урагана вне категорий не существует деления на своих и чужих.

    Возраст: 16+ (зрителям, достигшим 16 лет)
    Рейтинг MPAA: PG-13 (детям до 13 лет просмотр нежелателен)
    Дата мировой премьеры: 28.02.2018
    Дата российской премьеры: 08.03.2018, MEGOGO Distribution
    Дата выхода DVD/Blu-ray релиза: 18.06.2018, НД Плэй
    Продолжительность: 01: 43: 05
    Качество видео: BDRip 720p
    Перевод: Дублированный (iTunes)
    Субтитры: Английские, отключаемые (full)
    Видео: AVC/H.264, 1280x536, ~2150 Kbps
    Аудио #1: AAC, 2 ch, 129 Kbps - Русский
    Аудио #2: AAC, 2 ch, 160 Kbps - Английский

    General
    Unique ID : 270334685521402677406196749622952435576 (0xCB60910BBA93F7E6DA6F3AC2C97D9F78)
    Complete name : The.Hurricane.Heist.2018.RU.EN.BDRip.720p.MIXTV.mkv
    Format : Matroska
    Format version : Version 4/Version 2
    File size : 1.76 GiB
    Duration : 1 h 43 min
    Overall bit rate : 2 451 kb/s
    Movie name : The.Hurricane.Heist.2018 from MIXTV
    Encoded date : UTC 2018-05-29 02: 16: 06
    Writing application : mkvmerge v23.0.0 (\'The Bride Said No\') 64-bit
    Writing library : libebml v1.3.6 + libmatroska v1.4.9
    Video
    ID : 1
    Format : AVC
    Format/Info : Advanced Video Codec
    Format profile : High@L4.1
    Format settings : CABAC/9 Ref Frames
    Format settings, CABAC : Yes
    Format settings, ReFrames : 9 frames
    Codec ID : V_MPEG4/ISO/AVC
    Duration : 1 h 43 min
    Bit rate : 2 150 kb/s
    Width : 1 280 pixels
    Height : 536 pixels
    Display aspect ratio : 2.40: 1
    Frame rate mode : Constant
    Frame rate : 23.976 (24000/1001) FPS
    Color space : YUV
    Chroma subsampling : 4: 2: 0
    Bit depth : 8 bits
    Scan type : Progressive
    Bits/(Pixel*Frame) : 0.131
    Stream size : 1.55 GiB (88%)
    Title : The.Hurricane.Heist.2018
    Writing library : x264 core 155 r2893 b00bcaf
    Encoding settings : cabac=1/ref=9/deblock=1: -1: -1/analyse=0x3: 0x113/me=umh/subme=9/psy=1/psy_rd=1.00: 0.15/mixed_ref=1/me_range=24/chroma_me=1/trellis=1/8x8dct=1/cqm=0/deadzone=21, 11/fast_pskip=1/chroma_qp_offset=-3/threads=6/lookahead_threads=1/sliced_threads=0/nr=0/decimate=1/interlaced=0/bluray_compat=0/constrained_intra=0/bframes=6/b_pyramid=2/b_adapt=2/b_bias=0/direct=3/weightb=1/open_gop=0/weightp=2/keyint=240/keyint_min=24/scenecut=40/intra_refresh=0/rc_lookahead=30/rc=2pass/mbtree=1/bitrate=2150/ratetol=1.0/qcomp=0.60/qpmin=0/qpmax=69/qpstep=4/cplxblur=20.0/qblur=0.5/vbv_maxrate=62500/vbv_bufsize=78125/nal_hrd=none/filler=0/ip_ratio=1.40/aq=1: 1.00
    Language : English
    Default : Yes
    Forced : No
    Color range : Limited
    Color primaries : BT.709
    Transfer characteristics : BT.709
    Matrix coefficients : BT.709
    Audio #1
    ID : 2
    Format : AAC
    Format/Info : Advanced Audio Codec
    Format profile : LC
    Codec ID : A_AAC-2
    Duration : 1 h 43 min
    Bit rate : 129 kb/s
    Channel(s) : 2 channels
    Channel positions : Front: L R
    Sampling rate : 48.0 kHz
    Frame rate : 46.875 FPS (1024 SPF)
    Compression mode : Lossy
    Delay relative to video : -21 ms
    Stream size : 95.4 MiB (5%)
    Title : Dub iTunes
    Language : Russian
    Default : Yes
    Forced : No
    Audio #2
    ID : 3
    Format : AAC
    Format/Info : Advanced Audio Codec
    Format profile : LC
    Codec ID : A_AAC-2
    Duration : 1 h 43 min
    Bit rate : 160 kb/s
    Channel(s) : 2 channels
    Channel positions : Front: L R
    Sampling rate : 48.0 kHz
    Frame rate : 46.875 FPS (1024 SPF)
    Compression mode : Lossy
    Delay relative to video : -21 ms
    Stream size : 118 MiB (7%)
    Title : Original
    Language : English
    Default : No
    Forced : No
    Text
    ID : 4
    Format : VobSub
    Codec ID : S_VOBSUB
    Codec ID/Info : Picture based subtitle format used on DVDs
    Duration : 1 h 42 min
    Bit rate : 10.3 kb/s
    Count of elements : 1245
    Stream size : 7.54 MiB (0%)
    Title : Full
    Language : English
    Default : No
    Forced : No
    Menu
    00: 00: 00.000 : en: 00: 00: 00.000
    00: 05: 41.258 : en: 00: 05: 41.258
    00: 13: 15.253 : en: 00: 13: 15.253
    00: 20: 49.456 : en: 00: 20: 49.456
    00: 25: 48.046 : en: 00: 25: 48.046
    00: 30: 08.974 : en: 00: 30: 08.974
    00: 35: 00.890 : en: 00: 35: 00.890
    00: 40: 40.813 : en: 00: 40: 40.813
    00: 45: 48.162 : en: 00: 45: 48.162
    00: 52: 34.359 : en: 00: 52: 34.359
    01: 00: 22.244 : en: 01: 00: 22.244
    01: 06: 49.881 : en: 01: 06: 49.881
    01: 11: 02.341 : en: 01: 11: 02.341
    01: 17: 43.951 : en: 01: 17: 43.951
    01: 25: 06.351 : en: 01: 25: 06.351
    01: 32: 38.595 : en: 01: 32: 38.595

    Скриншоты для ознакомления



    Все одноименные релизы в Клубе
    Время раздачи: 24/7 (круглосуточно) (до появления первых 3-5 скачавших)


    Онлайн видео Ограбление в ураган



    Ограбление в ураган/The Hurricane Heist (2018) BDRip [H.264/720p-LQ]
    Рейтинг →
     (голосов: 1, оценка 3/5, голосовать можно 1 раз )

    Другие торренты по теме:

  • Ограбление в ураган / The Hurricane Heist (2018) WEB-DLRip [H.264 / 1080p-LQ] [Line, AD]
  • Ограбление в ураган / The Hurricane Heist (2018) WEB-DL [H.264 / 720p-LQ]
  • Ограбление в ураган / The Hurricane Heist (2018) WEB-DL [H.264 / 1080p-LQ]
  • Ограбление в ураган / The Hurricane Heist (2018) WEB-DLRip [H.264]
  • Ограбление в ураган / The Hurricane Heist (2018) WEB-DLRip [H.264]
  • Ограбление в ураган / The Hurricane Heist (2018) WEB-DL [1080p] ATV
  • Ограбление в ураган / The Hurricane Heist (2018) WEB-DL [720p] ATV
  • Ограбление в ураган / The Hurricane Heist (2018) HDRip


    • Комментарии (0):

      Информация

      Информация

        Посетители, находящиеся в группе Гости, не могут оставлять комментарии в данной новости.

        ↓ Меню




        ↓ Опрос

        Вы добавили сайт в закладки?
        Да
        Нет


        Top 10 за месяц (Фильмы)