.
Авторизация | Регистрация
Хочешь лучшие торренты? Добавь свой email!
Добавить

Торрент скачать бесплатно

  • support: webmaster@btracker.org
» » Опасный бизнес / Gringo (2018) BDRip [H.264 / 1080p] торрент скачать бесплатно


    Опасный бизнес / Gringo (2018) BDRip [H.264 / 1080p] торрент скачать бесплатно

    Опубликовал: Админ | Дата: 31-05-2018, 05:00 | .torrent скачали: 0

    Опасный бизнес / Gringo (2018) BDRip [H.264 / 1080p]Производство: США, Австралия, Bac Films, Savage Productions, Tilted Pictures
    Жанр: Боевик, Комедия, Криминал
    Режиссер: Нэш Эдгертон
    Продюсер: А.Дж. Дикс, Нэш Эдгертон, Бет Коно

    Актеры
    Джоэл Эдгертон, Шарлиз Терон, Дэвид Ойелоуо, Тэнди Ньютон, Башир Салахуддин, Гленн Кубота, Мелони Диас, Аманда Сайфред, Гарри Тредэвэй, Тео Таплитц

    Описание

    Дерзкая длинноногая блондинка — она идеально подходит для опасного бизнеса. Однажды одному из ее подчиненных становится известна уникальная формула, за которой гоняется весь мир. Он решает инсценировать собственное похищение и потребовать выкуп у компании. Лучше этому умнику не рассчитывать на помощь своей эффектной начальницы, ведь для корпорации он предпочтительнее мертвый, чем живой.

    Возраст: 18+ (зрителям, достигшим 18 лет. запрещено для детей)
    Рейтинг MPAA: R (лицам до 17 лет обязательно присутствие взрослого)
    Дата мировой премьеры: 8 марта 2018
    Дата российской премьеры: 19 апреля 2018, Вольга
    Продолжительность: 01: 50: 38
    Качество видео: BDRip
    Перевод: Дублированный (iTunes)
    Субтитры: Английские
    Видео: AVC/H.264, 1920x804, ~12 Mbps
    Аудио 1: AC3, 6 ch, 384 kbps - Русский
    Аудио 2: AC3, 6 ch, 384 kbps - Украинский
    Аудио 3: DTS, 6 ch, 1509 kbps - Английский

    Gringo.2018.BDRip.1080p.mkv
    Format : Matroska
    Format version : Version 4/Version 2
    File size : 11.0 GiB
    Duration : 1 h 50 min
    Overall bit rate : 14.3 Mb/s
    Movie name : Gringo 2018 from ExKinoRay
    Encoded date : UTC 2018-05-25 01: 41: 17
    Writing application : mkvmerge v22.0.0 (\'At The End Of The World\') 64-bit
    Writing library : libebml v1.3.5 + libmatroska v1.4.8
    Video
    ID : 1
    Format : AVC
    Format/Info : Advanced Video Codec
    Format profile : High@L4.1
    Format settings : CABAC/5 Ref Frames
    Format settings, CABAC : Yes
    Format settings, ReFrames : 5 frames
    Codec ID : V_MPEG4/ISO/AVC
    Duration : 1 h 50 min
    Bit rate : 12.0 Mb/s
    Width : 1 920 pixels
    Height : 804 pixels
    Display aspect ratio : 2.40: 1
    Frame rate mode : Constant
    Frame rate : 23.976 (24000/1001) FPS
    Color space : YUV
    Chroma subsampling : 4: 2: 0
    Bit depth : 8 bits
    Scan type : Progressive
    Bits/(Pixel*Frame) : 0.324
    Stream size : 9.27 GiB (84%)
    Writing library : x264 core 142 r2431+42 c69a006 tMod 8-bit@all X86_64
    Encoding settings : cabac=1/ref=5/deblock=1: -3: -3/analyse=0x3: 0x133/me=umh/subme=11/psy=1/fade_compensate=0.00/psy_rd=1.05: 0.00/mixed_ref=1/me_range=64/chroma_me=1/trellis=2/8x8dct=1/cqm=0/deadzone=21, 11/fast_pskip=0/chroma_qp_offset=-2/threads=16/lookahead_threads=1/sliced_threads=0/nr=0/decimate=0/interlaced=0/bluray_compat=0/constrained_intra=0/fgo=0/bframes=8/b_pyramid=2/b_adapt=2/b_bias=0/direct=3/weightb=1/open_gop=0/weightp=2/keyint=240/keyint_min=24/scenecut=40/intra_refresh=0/rc_lookahead=40/rc=2pass/mbtree=0/bitrate=12000/ratetol=1.0/qcomp=0.70/qpmin=0: 0: 0/qpmax=69: 69: 69/qpstep=4/cplxblur=20.0/qblur=0.5/vbv_maxrate=50000/vbv_bufsize=45000/nal_hrd=none/filler=0/ip_ratio=1.25/pb_ratio=1.15/aq=3: 0.80/aq-sensitivity=10.00/aq-factor=1.00: 1.00: 1.00/aq2=0/aq3=0
    Language : English
    Default : Yes
    Forced : No
    Audio #1
    ID : 2
    Format : AC-3
    Format/Info : Audio Coding 3
    Codec ID : A_AC3
    Duration : 1 h 50 min
    Bit rate mode : Constant
    Bit rate : 384 kb/s
    Channel(s) : 6 channels
    Channel positions : Front: L C R, Side: L R, LFE
    Sampling rate : 48.0 kHz
    Frame rate : 31.250 FPS (1536 SPF)
    Bit depth : 16 bits
    Compression mode : Lossy
    Stream size : 304 MiB (3%)
    Title : iTunes
    Language : Russian
    Service kind : Complete Main
    Default : Yes
    Forced : Yes
    Audio #2
    ID : 3
    Format : AC-3
    Format/Info : Audio Coding 3
    Codec ID : A_AC3
    Duration : 1 h 50 min
    Bit rate mode : Constant
    Bit rate : 384 kb/s
    Channel(s) : 6 channels
    Channel positions : Front: L C R, Side: L R, LFE
    Sampling rate : 48.0 kHz
    Frame rate : 31.250 FPS (1536 SPF)
    Bit depth : 16 bits
    Compression mode : Lossy
    Stream size : 304 MiB (3%)
    Title : iTunes
    Language : Ukrainian
    Service kind : Complete Main
    Default : No
    Forced : No
    Audio #3
    ID : 4
    Format : DTS
    Format/Info : Digital Theater Systems
    Codec ID : A_DTS
    Duration : 1 h 50 min
    Bit rate mode : Constant
    Bit rate : 1 509 kb/s
    Channel(s) : 6 channels
    Channel positions : Front: L C R, Side: L R, LFE
    Sampling rate : 48.0 kHz
    Frame rate : 93.750 FPS (512 SPF)
    Bit depth : 24 bits
    Compression mode : Lossy
    Stream size : 1.17 GiB (11%)
    Title : Original
    Language : English
    Default : No
    Forced : No
    Text
    ID : 5
    Format : UTF-8
    Codec ID : S_TEXT/UTF8
    Codec ID/Info : UTF-8 Plain Text
    Duration : 1 h 44 min
    Bit rate : 64 b/s
    Count of elements : 1492
    Stream size : 49.6 KiB (0%)
    Language : English
    Default : No
    Forced : No
    Menu
    00: 00: 00.000 : en: 00: 00: 00.000
    00: 02: 29.024 : en: 00: 02: 29.024
    00: 08: 36.808 : en: 00: 08: 36.808
    00: 14: 49.388 : en: 00: 14: 49.388
    00: 19: 43.057 : en: 00: 19: 43.057
    00: 26: 11.195 : en: 00: 26: 11.195
    00: 29: 59.548 : en: 00: 29: 59.548
    00: 34: 12.676 : en: 00: 34: 12.676
    00: 41: 59.600 : en: 00: 41: 59.600
    00: 49: 14.702 : en: 00: 49: 14.702
    00: 57: 12.304 : en: 00: 57: 12.304
    01: 02: 56.940 : en: 01: 02: 56.940
    01: 09: 40.551 : en: 01: 09: 40.551
    01: 16: 20.951 : en: 01: 16: 20.951
    01: 20: 38.125 : en: 01: 20: 38.125
    01: 25: 53.857 : en: 01: 25: 53.857
    01: 29: 14.224 : en: 01: 29: 14.224
    01: 33: 46.704 : en: 01: 33: 46.704
    01: 39: 06.524 : en: 01: 39: 06.524
    01: 43: 28.869 : en: 01: 43: 28.869

    Скриншоты для ознакомления



    Все одноименные релизы в Клубе
    Время раздачи: 24/7 (до появления первых 3-5 скачавших)


    Онлайн видео Опасный бизнес



    Опасный бизнес/Gringo (2018) BDRip [H.264/1080p]
    Рейтинг →
     (голосов: 1, оценка 5/5, голосовать можно 1 раз )

    Другие торренты по теме:

  • Опасный бизнес / Gringo (2018) WEB-DL [H.264 / 1080p-LQ]
  • Опасный бизнес / Gringo (2018) WEB-DL [720p] ATV
  • Опасный бизнес / Gringo (2018) WEB-DL [1080p] ATV
  • Опасный бизнес / Gringo (2018) BDRip [H.264 / 720p]
  • Опасный бизнес / Gringo (2018) WEB-DLRip [576p] iPad
  • Опасный бизнес / Gringo (2018) BDRemux [H.264 / 1080p] [EN / EN Sub]
  • Опасный бизнес / Gringo (2018) BDRip
  • Опасный бизнес / Gringo (2018) BDRip [H.264 / 720p-LQ]


    • Комментарии (0):

      Информация

      Информация

        Посетители, находящиеся в группе Гости, не могут оставлять комментарии в данной новости.

        ↓ Меню




        ↓ Опрос

        Вы добавили сайт в закладки?
        Да
        Нет


        Top 10 за месяц (Фильмы)