.
Авторизация | Регистрация
Хочешь лучшие торренты? Добавь свой email!
Добавить

Торрент скачать бесплатно

  • support: webmaster@btracker.org
» » Чистокровные / Thoroughbreds (2017) WEB-DL [H.264 / 1080p-LQ] торрент скачать бесплатно


    Чистокровные / Thoroughbreds (2017) WEB-DL [H.264 / 1080p-LQ] торрент скачать бесплатно

    Опубликовал: Админ | Дата: 31-05-2018, 05:00 | .torrent скачали: 0

    Чистокровные / Thoroughbreds (2017) WEB-DL [H.264 / 1080p-LQ]Производство: США/B Story, Big Indie Pictures, June Pictures
    Жанр: Драма, Триллер
    Режиссер: Кори Финли

    Актеры
    Аня Тейлор-Джой, Оливия Кук, Антон Ельчин, Пол Спаркс, Кайли Вернофф, Фрэнси Свифт, Леа Просито, Макс Рипли, Шанти Спиллейн

    Описание

    Дороги двух подруг из пригорода Коннектикута разошлись, и девушки не виделись несколько лет. Когда они снова встречаются, то решают восстановить свою былую дружбу. При более тесном общении девушки замечают, что они обе очень изменились, и даже стали способными на убийство.

    Возраст: 18+ (зрителям, достигшим 18 лет. запрещено для детей)
    Рейтинг MPAA: R (лицам до 17 лет обязательно присутствие взрослого)
    Дата мировой премьеры: 21 января 2017
    Дата российской премьеры: 5 Июня 2018
    Дата выхода DVD/Blu-ray релиза: 16 Июля 2018
    Продолжительность: 01: 32: 04
    Качество видео: WEB-DL
    Язык: RUS, EN
    Перевод: Многоголосый закадровый, профессиональный
    Озвучка/Автор перевода: HDrezka Studio
    Субтитры: Русские FOCS Studio, английские
    Реклама: нет
    Видео: AVC/H.264, 1916x800, ~4445 Kbps
    Аудио: 48 kHz, AC3, 2 ch, 384 Kbps, RUS
    Аудио: 48 kHz, AC3, 6 ch, 384 Kbps, EN

    General
    Unique ID : 255024127568329766137606041125308151248 (0xBFDBDC42072C7CF298F8B902698935D0)
    Complete name : D: КиноЧистокровные Thoroughbreds 2017 WEB-DL 1080p.mkv
    Format : Matroska
    Format version : Version 2
    File size : 3.42 GiB
    Duration : 1 h 32 min
    Overall bit rate : 5 319 kb/s
    Encoded date : UTC 2018-05-29 07: 32: 02
    Writing application : mkvmerge v7.8.0 (\'River Man\') 32bit built on Apr 3 2015 12: 11: 22
    Writing library : libebml v1.3.1 + libmatroska v1.4.2
    Video
    ID : 1
    Format : AVC
    Format/Info : Advanced Video Codec
    Format profile : High@L4
    Format settings : CABAC/5 Ref Frames
    Format settings, CABAC : Yes
    Format settings, ReFrames : 5 frames
    Codec ID : V_MPEG4/ISO/AVC
    Duration : 1 h 32 min
    Bit rate : 4 445 kb/s
    Width : 1 916 pixels
    Height : 800 pixels
    Display aspect ratio : 2.40: 1
    Frame rate mode : Constant
    Frame rate : 23.976 (24000/1001) FPS
    Color space : YUV
    Chroma subsampling : 4: 2: 0
    Bit depth : 8 bits
    Scan type : Progressive
    Bits/(Pixel*Frame) : 0.121
    Stream size : 2.86 GiB (84%)
    Language : English
    Default : Yes
    Forced : No
    Color range : Limited
    Color primaries : BT.709
    Transfer characteristics : BT.709
    Matrix coefficients : BT.709
    Statistics Tags Issue : mkvmerge v20.0.0 (\'I Am The Sun\') 64-bit 2018-05-26 15: 28: 01/mkvmerge v7.8.0 (\'River Man\') 32bit built on Apr 3 2015 12: 11: 22 2018-05-29 07: 32: 02
    FromStats_BitRate : 4548566
    FromStats_Duration : 01: 32: 04.525000000
    FromStats_FrameCount : 132456
    FromStats_StreamSize : 3141083627
    Audio #1
    ID : 2
    Format : AC-3
    Format/Info : Audio Coding 3
    Codec ID : A_AC3
    Duration : 1 h 32 min
    Bit rate mode : Constant
    Bit rate : 384 kb/s
    Channel(s) : 2 channels
    Channel positions : Front: L R
    Sampling rate : 48.0 kHz
    Frame rate : 31.250 FPS (1536 SPF)
    Bit depth : 16 bits
    Compression mode : Lossy
    Delay relative to video : -42 ms
    Stream size : 253 MiB (7%)
    Language : Russian
    Service kind : Complete Main
    Default : Yes
    Forced : Yes
    Audio #2
    ID : 3
    Format : AC-3
    Format/Info : Audio Coding 3
    Codec ID : A_AC3
    Duration : 1 h 32 min
    Bit rate mode : Constant
    Bit rate : 384 kb/s
    Channel(s) : 6 channels
    Channel positions : Front: L C R, Side: L R, LFE
    Sampling rate : 48.0 kHz
    Frame rate : 31.250 FPS (1536 SPF)
    Bit depth : 16 bits
    Compression mode : Lossy
    Delay relative to video : -42 ms
    Stream size : 253 MiB (7%)
    Language : English
    Service kind : Complete Main
    Default : No
    Forced : No
    Statistics Tags Issue : mkvmerge v20.0.0 (\'I Am The Sun\') 64-bit 2018-05-26 15: 28: 01/mkvmerge v7.8.0 (\'River Man\') 32bit built on Apr 3 2015 12: 11: 22 2018-05-29 07: 32: 02
    FromStats_BitRate : 384000
    FromStats_Duration : 01: 32: 04.576000000
    FromStats_FrameCount : 172643
    FromStats_StreamSize : 265179648
    Text #1
    ID : 4
    Format : UTF-8
    Codec ID : S_TEXT/UTF8
    Codec ID/Info : UTF-8 Plain Text
    Title : FOCS Studio
    Language : Russian
    Default : No
    Forced : No
    Statistics Tags Issue : mkvmerge v20.0.0 (\'I Am The Sun\') 64-bit 2018-05-26 15: 28: 01/mkvmerge v7.8.0 (\'River Man\') 32bit built on Apr 3 2015 12: 11: 22 2018-05-29 07: 32: 02
    FromStats_BitRate : 81
    FromStats_Duration : 01: 25: 14.500000000
    FromStats_FrameCount : 1144
    FromStats_StreamSize : 51803
    Text #2
    ID : 5
    Format : UTF-8
    Codec ID : S_TEXT/UTF8
    Codec ID/Info : UTF-8 Plain Text
    Language : English
    Default : No
    Forced : No
    Statistics Tags Issue : mkvmerge v20.0.0 (\'I Am The Sun\') 64-bit 2018-05-26 15: 28: 01/mkvmerge v7.8.0 (\'River Man\') 32bit built on Apr 3 2015 12: 11: 22 2018-05-29 07: 32: 02
    FromStats_BitRate : 55
    FromStats_Duration : 01: 23: 59.568000000
    FromStats_FrameCount : 1220
    FromStats_StreamSize : 34879
    Menu
    00: 00: 00.000 : en: 1
    00: 05: 35.126 : en: 2
    00: 10: 23.789 : en: 3
    00: 16: 02.335 : en: 4
    00: 21: 40.548 : en: 5
    00: 24: 59.121 : en: 6
    00: 27: 05.914 : en: 7
    00: 29: 57.585 : en: 8
    00: 34: 06.792 : en: 9
    00: 39: 17.269 : en: 10
    00: 44: 34.669 : en: 11
    00: 49: 00.726 : en: 12
    00: 52: 29.226 : en: 13
    00: 58: 51.358 : en: 14
    01: 01: 31.226 : en: 15
    01: 05: 49.442 : en: 16
    01: 11: 21.899 : en: 17
    01: 17: 57.836 : en: 18
    01: 21: 47.941 : en: 19
    01: 26: 37.146 : en: 20

    Скриншоты для ознакомления



    Все одноименные релизы в Клубе
    Время раздачи: как минимум до появления первых 3-5 скачавших (до появления первых 3-5 скачавших)


    Онлайн видео Чистокровные



    Чистокровные/Thoroughbreds (2017) WEB-DL [H.264/1080p-LQ]
    Рейтинг →
     (голосов: 1, оценка 3/5, голосовать можно 1 раз )

    Другие торренты по теме:

  • Чистокровные / Thoroughbreds (2017) WEB-DL [1080p] ATV (MVO)
  • Чистокровные / Thoroughbreds (2017) BDRip [H.264 / 1080p] [MVO]


    • Комментарии (0):

      Информация

      Информация

        Посетители, находящиеся в группе Гости, не могут оставлять комментарии в данной новости.

        ↓ Меню




        ↓ Опрос

        Вы добавили сайт в закладки?
        Да
        Нет


        Top 10 за месяц (Фильмы)