.
Авторизация | Регистрация
Хочешь лучшие торренты? Добавь свой email!
Добавить

Торрент скачать бесплатно

  • support: webmaster@btracker.org
» » Форма воды / The Shape of Water (2017) BDRip [H.264] торрент скачать бесплатно


    Форма воды / The Shape of Water (2017) BDRip [H.264] торрент скачать бесплатно

    Опубликовал: Админ | Дата: 31-05-2018, 05:00 | .torrent скачали: 0

    Форма воды / The Shape of Water (2017) BDRip [H.264]Производство: Канада, США, Fox Searchlight Pictures
    Жанр: Фантастика, Драма
    Режиссер: Гильермо дель Торо
    Продюсер: Дж. Майлз Дэйл, Гильермо дель Торо, Т.К. Ноулз

    Актеры
    Салли Хокинс, Майкл Шеннон, Ричард Дженкинс, Октавия Спенсер, Майкл Стулбарг, Даг Джонс, Дэвид Хьюлетт, Ник Сирси, Стюарт Арнотт, Найджел Беннетт

    Описание

    Действие разворачивается в начале 60-х прошлого века. Главная героиня — немая уборщица в научной лаборатории. В стенах секретного учреждения идёт работа по изучению отловленного человека-амфибии. Женщина влюбляется в мутанта и помогает ему сбежать.

    Возраст: 18+ (зрителям, достигшим 18 лет. запрещено для детей)
    Рейтинг MPAA: R (лицам до 17 лет обязательно присутствие взрослого)
    Дата мировой премьеры: 31 августа 2017
    Дата российской премьеры: 18 января 2018, Двадцатый Век Фокс СНГ
    Дата выхода DVD/Blu-ray релиза: 28 мая 2018, НД Плэй
    Продолжительность: 02: 03: 19
    Качество видео: BDRip
    Перевод: Дублированный (Лицензия Blu-ray CEE)
    Субтитры: русские (форс., стилизованные, хардсаб), русские (x2), английские (Full + SDH + SDH-Colored)
    Видео: AVC/H.264, 1024x552, ~1634 kbps
    Аудио 1: AC3, 6 ch, 448 kbps - Русский
    Аудио 2: AC3, 6 ch, 448 kbps - Английский

    Forma.Vody.2017.DUAL.BDRip.x264.mkv
    Format : Matroska
    Format version : Version 4/Version 2
    File size : 2.18 GiB
    Duration : 2 h 3 min
    Overall bit rate : 2 532 kb/s
    Movie name : The Shape of Water (2017)
    Encoded date : UTC 2018-05-19 08: 41: 28
    Writing application : mkvmerge v5.9.0 (\'On The Loose\') built on Dec 15 2012 16: 39: 58
    Writing library : libebml v1.3.0 + libmatroska v1.4.0
    Video
    ID : 1
    Format : AVC
    Format/Info : Advanced Video Codec
    Format profile : High@L4.1
    Format settings : CABAC/12 Ref Frames
    Format settings, CABAC : Yes
    Format settings, ReFrames : 12 frames
    Codec ID : V_MPEG4/ISO/AVC
    Duration : 2 h 3 min
    Bit rate : 1 634 kb/s
    Width : 1 024 pixels
    Height : 552 pixels
    Display aspect ratio : 1.85: 1
    Frame rate mode : Constant
    Frame rate : 23.976 (24000/1001) FPS
    Color space : YUV
    Chroma subsampling : 4: 2: 0
    Bit depth : 8 bits
    Scan type : Progressive
    Bits/(Pixel*Frame) : 0.121
    Stream size : 1.37 GiB (63%)
    Title : potroks
    Writing library : x264 core 146 r2538 121396c
    Encoding settings : cabac=1/ref=12/deblock=1: -2: -2/analyse=0x3: 0x113/me=umh/subme=11/psy=1/psy_rd=1.00: 0.05/mixed_ref=1/me_range=48/chroma_me=1/trellis=2/8x8dct=1/cqm=0/deadzone=21, 11/fast_pskip=0/chroma_qp_offset=-3/threads=9/lookahead_threads=2/sliced_threads=0/nr=0/decimate=0/interlaced=0/bluray_compat=0/constrained_intra=0/bframes=13/b_pyramid=2/b_adapt=2/b_bias=0/direct=3/weightb=1/open_gop=0/weightp=2/keyint=240/keyint_min=23/scenecut=40/intra_refresh=0/rc_lookahead=125/rc=2pass/mbtree=1/bitrate=1634/ratetol=1.0/qcomp=0.70/qpmin=0/qpmax=69/qpstep=4/cplxblur=20.0/qblur=0.5/vbv_maxrate=14000/vbv_bufsize=14000/nal_hrd=none/filler=0/ip_ratio=1.35/aq=2: 0.80
    Language : English
    Default : Yes
    Forced : No
    Audio #1
    ID : 2
    Format : AC-3
    Format/Info : Audio Coding 3
    Codec ID : A_AC3
    Duration : 2 h 3 min
    Bit rate mode : Constant
    Bit rate : 448 kb/s
    Channel(s) : 6 channels
    Channel positions : Front: L C R, Side: L R, LFE
    Sampling rate : 48.0 kHz
    Frame rate : 31.250 FPS (1536 SPF)
    Bit depth : 16 bits
    Compression mode : Lossy
    Stream size : 395 MiB (18%)
    Title : Dub | DD 5.1 @ 448 kbps - Blu-ray CEE
    Language : Russian
    Service kind : Complete Main
    Default : Yes
    Forced : No
    Audio #2
    ID : 3
    Format : AC-3
    Format/Info : Audio Coding 3
    Codec ID : A_AC3
    Duration : 2 h 3 min
    Bit rate mode : Constant
    Bit rate : 448 kb/s
    Channel(s) : 6 channels
    Channel positions : Front: L C R, Side: L R, LFE
    Sampling rate : 48.0 kHz
    Frame rate : 31.250 FPS (1536 SPF)
    Bit depth : 16 bits
    Compression mode : Lossy
    Stream size : 395 MiB (18%)
    Title : Original | DD 5.1 @ 448 kbps
    Language : English
    Service kind : Complete Main
    Default : No
    Forced : No
    Text #1
    ID : 4
    Format : UTF-8
    Codec ID : S_TEXT/UTF8
    Codec ID/Info : UTF-8 Plain Text
    Title : iTunes
    Language : Russian
    Default : No
    Forced : No
    Text #2
    ID : 5
    Format : UTF-8
    Codec ID : S_TEXT/UTF8
    Codec ID/Info : UTF-8 Plain Text
    Title : Focs studios
    Language : Russian
    Default : No
    Forced : No
    Text #3
    ID : 6
    Format : UTF-8
    Codec ID : S_TEXT/UTF8
    Codec ID/Info : UTF-8 Plain Text
    Title : Full
    Language : English
    Default : No
    Forced : No
    Text #4
    ID : 7
    Format : UTF-8
    Codec ID : S_TEXT/UTF8
    Codec ID/Info : UTF-8 Plain Text
    Title : SDH
    Language : English
    Default : No
    Forced : No
    Text #5
    ID : 8
    Format : UTF-8
    Codec ID : S_TEXT/UTF8
    Codec ID/Info : UTF-8 Plain Text
    Title : SDH-Colored
    Language : English
    Default : No
    Forced : No
    Menu
    00: 00: 00.000 : : 00: 00: 00.000
    00: 06: 24.467 : : 00: 06: 24.467
    00: 12: 54.774 : : 00: 12: 54.774
    00: 18: 32.987 : : 00: 18: 32.987
    00: 23: 45.591 : : 00: 23: 45.591
    00: 29: 39.653 : : 00: 29: 39.653
    00: 35: 29.835 : : 00: 35: 29.836
    00: 39: 30.535 : : 00: 39: 30.535
    00: 42: 42.435 : : 00: 42: 42.435
    00: 48: 34.036 : : 00: 48: 34.036
    00: 52: 26.935 : : 00: 52: 26.935
    00: 57: 30.197 : : 00: 57: 30.197
    01: 01: 52.542 : : 01: 01: 52.542
    01: 07: 35.551 : : 01: 07: 35.551
    01: 12: 13.496 : : 01: 12: 13.496
    01: 17: 50.791 : : 01: 17: 50.791
    01: 21: 17.122 : : 01: 21: 17.122
    01: 26: 05.911 : : 01: 26: 05.911
    01: 32: 48.480 : : 01: 32: 48.480
    01: 37: 18.750 : : 01: 37: 18.750
    01: 43: 24.115 : : 01: 43: 24.115
    01: 46: 06.610 : : 01: 46: 06.610
    01: 50: 31.667 : : 01: 50: 31.667
    01: 58: 34.858 : : 01: 58: 34.858

    Скриншоты для ознакомления



    Все одноименные релизы в Клубе
    Время раздачи: 24/7 (до появления первых 3-5 скачавших)


    Онлайн видео Форма воды



    Форма воды/The Shape of Water (2017) BDRip [H.264]
    Рейтинг →
     (голосов: 1, оценка 3/5, голосовать можно 1 раз )

    Другие торренты по теме:

  • Форма воды / The Shape of Water (2017) DVDScr [MVO] [AD]
  • Форма воды / The Shape of Water (2017) DVDScr [MVO] [AD]
  • Форма воды / The Shape of Water (2017) DVDScr [EN / RU Sub]
  • Alexandre Desplat - The Shape of Water / Форма воды (Original Motion Picture Soundtrack) (2017) [FLAC|Lossless|CD|tracks]<Soundtrack>
  • Alexandre Desplat - The Shape of Water / Форма воды (Original Motion Picture Soundtrack) (2017) [MP3|320 кб / с]<Soundtrack>
  • Форма воды / The Shape of Water (2017) WEB-DL [H.264 / 1080p-LQ] [EN / RU, EN Sub]
  • Форма воды / The Shape of Water (2017) WEB-DLRip [MVO]
  • Форма воды / The Shape of Water (2017) WEB-DLRip [H264 / 1080p-LQ] [MVO]


    • Комментарии (0):

      Информация

      Информация

        Посетители, находящиеся в группе Гости, не могут оставлять комментарии в данной новости.

        ↓ Меню




        ↓ Опрос

        Вы добавили сайт в закладки?
        Да
        Нет


        Top 10 за месяц (Фильмы)