.
Авторизация | Регистрация
Хочешь лучшие торренты? Добавь свой email!
Добавить

Торрент скачать бесплатно

  • support: webmaster@btracker.org
» » Tomb Raider: Лара Крофт / Tomb Raider (2018) WEB-DLRip [H.264 / 1080p-LQ] [MVO, AD] торрент скачать бесплатно


    Tomb Raider: Лара Крофт / Tomb Raider (2018) WEB-DLRip [H.264 / 1080p-LQ] [MVO, AD] торрент скачать бесплатно

    Опубликовал: Админ | Дата: 31-05-2018, 05:00 | .torrent скачали: 2

    Tomb Raider: Лара Крофт / Tomb Raider (2018) WEB-DLRip [H.264 / 1080p-LQ] [MVO, AD]Производство: Великобритания, США, GK Films, Metro-Goldwyn-Mayer, Square Enix Inc., Warner Bros. Pictures
    Жанр: Боевик, Приключения
    Режиссер: Роар Утхауг
    Продюсер: Грэм Кинг, Ной Хьюз, Патрик МакКормик

    Актеры
    Алисия Викандер, Доминик Уэст, Уолтон Гоггинс, Дэниэл Ву, Кристин Скотт Томас, Дерек Джекоби, Александр Виллауме, Тамер Барджаг, Эдриан Коллинз, Кинэн Эррисон

    Описание

    Лара Крофт — весьма самостоятельная дочь эксцентричного искателя приключений, который пропал, едва она стала подростком. Теперь ей двадцать один, она бесцельно проживает свою жизнь, курьером рассекая на байке по забитым улицам восточного Лондона. Решительно настроенная пробиться сама, она отказывается брать на себя руководство империей отца, не веря в то, что он действительно пропал. Слыша советы о том, что ей нужно смириться с этим и жить дальше после семи лет бесплодных поисков, Лара уже и сама не понимает, что же заставляет ее распутывать обстоятельства его исчезновения.

    Возраст: 16+ (зрителям, достигшим 16 лет)
    Рейтинг MPAA: PG-13 (детям до 13 лет просмотр нежелателен)
    Дата мировой премьеры: 2 марта 2018
    Дата российской премьеры: 15 марта 2018, Каро-Премьер
    Продолжительность: 01: 57: 33
    Качество видео: WEB-DLRip
    Перевод: Многоголосый закадровый (MUZOBOZ)
    Субтитры: Отсутствуют
    Реклама: Присутствуют текстовые вставки рекламы
    Видео: AVC/H.264, 1920x802 (2.40: 1), 5396 kbps, 23.976 fps
    Аудио: 48 kHz, AC3 Dolby Digital, 2/0 (L, R) ch, ~384 kbps
    Общее
    Уникальный идентификатор : 204103014928548838260074875664336211609 (0x998CCF91D684C7B39665553D0464CE99)
    Полное имя : D: Tomb.Raider.Лара.Крофт.2018.WEB-DLRip.1080p.NNMClub.mkv
    Формат : Matroska
    Версия формата : Version 4/Version 2
    Размер файла : 4, 75 Гбайт
    Продолжительность : 1 ч. 57 м.
    Режим общего битрейта : Переменный
    Общий поток : 5782 Кбит/сек
    Дата кодирования : UTC 2018-05-30 19: 31: 44
    Программа кодирования : mkvmerge v8.3.0 (\'Over the Horizon\') 64bit
    Библиотека кодирования : libebml v1.3.1 + libmatroska v1.4.2
    Видео
    Идентификатор : 1
    Формат : AVC
    Формат/Информация : Advanced Video Codec
    Профиль формата : High@L4.1
    Настройки формата : CABAC/4 Ref Frames
    Параметр CABAC формата : Да
    Параметр RefFrames формата : 4 кадра
    Идентификатор кодека : V_MPEG4/ISO/AVC
    Продолжительность : 1 ч. 57 м.
    Вид битрейта : Переменный
    Битрейт : 5396 Кбит/сек
    Максимальный битрейт : 6000 Кбит/сек
    Ширина : 1920 пикселей
    Высота : 802 пикселя
    Соотношение сторон : 2, 40: 1
    Режим частоты кадров : Постоянный
    Частота кадров : 23, 976 (24000/1001) кадра/сек
    Стандарт вещания : Component
    Цветовое пространство : YUV
    Субдискретизация насыщенности : 4: 2: 0
    Битовая глубина : 8 бит
    Тип развёртки : Прогрессивная
    Бит/(Пиксели*Кадры) : 0.146
    Размер потока : 4, 43 Гбайт (93%)
    Язык : English
    Default : Да
    Forced : Нет
    Цветовой диапазон : Limited
    Основные цвета : BT.709
    Характеристики трансфера : BT.709
    Коэффициенты матрицы : BT.709
    Аудио
    Идентификатор : 2
    Формат : AC-3
    Формат/Информация : Audio Coding 3
    Идентификатор кодека : A_AC3
    Продолжительность : 1 ч. 57 м.
    Вид битрейта : Постоянный
    Битрейт : 384 Кбит/сек
    Каналы : 2 канала
    Расположение каналов : Front: L R
    Частота : 48, 0 КГц
    Частота кадров : 31, 250 кадров/сек (1536 SPF)
    Битовая глубина : 16 бит
    Метод сжатия : С потерями
    Размер потока : 323 Мбайт (7%)
    Язык : Russian
    ServiceKind/String : Complete Main
    Default : Да
    Forced : Нет

    Скриншоты для ознакомления



    Все одноименные релизы в Клубе
    Время раздачи: 24/7 (до появления первых 3-5 скачавших)


    Онлайн видео Tomb Raider: Лара Крофт



    Tomb Raider: Лара Крофт/Tomb Raider (2018) WEB-DLRip [H.264/1080p-LQ] [MVO, AD]
    Рейтинг →
     (голосов: 1, оценка 3/5, голосовать можно 1 раз )

    Другие торренты по теме:

  • Tomb Raider: The Angel of Darkness / Tomb Raider: Ангел Тьмы (2003) [En / Ge] (20171016) License GOG
  • Tomb Raider: Лара Крофт / Tomb Raider (2018) WEB-DL [H.264 / 1080p-LQ] [EN / EN Sub]
  • Tomb Raider: Лара Крофт / Tomb Raider (2018) WEB-DLRip [H.264 / 720p-LQ] [Звук c TS] [AD]
  • Tomb Raider: Лара Крофт / Tomb Raider (2018) HDRip [H.264 / 720p-LQ] [MVO]
  • Tomb Raider: Лара Крофт / Tomb Raider (2018) HDRip [MVO]
  • Tomb Raider: Лара Крофт / Tomb Raider (2018) WEB-DL [H.264 / 1080p-LQ] [MVO]
  • Tomb Raider: Лара Крофт / Tomb Raider (2018) BDRip [H.264 / 720p] [MVO]
  • Tomb Raider: Лара Крофт / Tomb Raider (2018) BDRip [H.264 / 1080p] [MVO]


    • Комментарии (0):

      Информация

      Информация

        Посетители, находящиеся в группе Гости, не могут оставлять комментарии в данной новости.

        ↓ Меню




        ↓ Опрос

        Вы добавили сайт в закладки?
        Да
        Нет


        Top 10 за месяц (Фильмы)