.
Авторизация | Регистрация
Хочешь лучшие торренты? Добавь свой email!
Добавить

Торрент скачать бесплатно

  • support: webmaster@btracker.org
» » Танки (2018) WEB-DL [H.264 / 1080p-LQ] торрент скачать бесплатно


    Танки (2018) WEB-DL [H.264 / 1080p-LQ] торрент скачать бесплатно

    Опубликовал: Админ | Дата: 31-05-2018, 05:00 | .torrent скачали: 0

    Танки (2018) WEB-DL [H.264 / 1080p-LQ]Производство: Россия, МЕДИА-ТРЕСТ
    Жанр: Приключения, История, Военный
    Режиссер: Ким Дружинин
    Продюсер: Дмитрий Щербанов, Олег Антипов

    Актеры
    Андрей Мерзликин, Аглая Тарасова, Александр Тютин, Сергей Стукалов, Антон Филипенко, Алексей Овсянников, Сергей Четвертков, Николай Горшков, Дмитрий Поднозов, Юрий Ицков

    Описание

    На пороге войны с фашистской Германией инженер Михаил Кошкин разрабатывает прототип нового инновационного танка Т-34. Чтобы доказать уникальность боевой машины, Кошкин и его команда отправляются в Москву на танках своим ходом. Но вскоре пробег превращается в непредсказуемую гонку, где бездорожье лишь меньшее из зол… Пройдя череду опасных приключений и благодаря безупречным техническим и боевым качествам новых танков, героям удается одержать верх над преследователями и доказать превосходство Т-34.

    Возраст: 12+ (зрителям, достигшим 12 лет)
    Дата российской премьеры: 26 апреля 2018, Двадцатый Век Фокс СНГ
    Релиз от: NNMClub
    Продолжительность: 01: 33: 13
    Качество видео: WEB-DL
    Перевод: Не требуется (русский) iTunes
    Субтитры: Отсутствуют
    Видео: AVC/H.264, 1908x848 (2.25: 1), 4512 kbps
    Аудио: 48 kHz, AC3 Dolby Digital, 3/2 (L, C, R, l, r) + LFE ch, ~384 kbps
    Общее
    Уникальный идентификатор : 247537283324206885611559504674305761101 (0xBA39F25662A5D075AC6A350882F65F4D)
    Полное имя : D: Танки.2018.WEB-DL.1080p.NNMClub.mkv
    Формат : Matroska
    Версия формата : Version 4/Version 2
    Размер файла : 3, 19 Гбайт
    Продолжительность : 1 ч. 33 м.
    Общий поток : 4898 Кбит/сек
    Название фильма : Танки.2018.WEB-DL.1080p.NNMClub
    Дата кодирования : UTC 2018-05-30 19: 44: 23
    Программа кодирования : mkvmerge v8.3.0 (\'Over the Horizon\') 64bit
    Библиотека кодирования : libebml v1.3.1 + libmatroska v1.4.2
    Видео
    Идентификатор : 1
    Формат : AVC
    Формат/Информация : Advanced Video Codec
    Профиль формата : High@L4
    Настройки формата : CABAC/5 Ref Frames
    Параметр CABAC формата : Да
    Параметр RefFrames формата : 5 кадров
    Идентификатор кодека : V_MPEG4/ISO/AVC
    Продолжительность : 1 ч. 33 м.
    Битрейт : 4512 Кбит/сек
    Ширина : 1908 пикселей
    Высота : 848 пикселей
    Соотношение сторон : 2, 25: 1
    Режим частоты кадров : Постоянный
    Частота кадров : 23, 976 (24000/1001) кадра/сек
    Цветовое пространство : YUV
    Субдискретизация насыщенности : 4: 2: 0
    Битовая глубина : 8 бит
    Тип развёртки : Прогрессивная
    Бит/(Пиксели*Кадры) : 0.116
    Размер потока : 2, 94 Гбайт (92%)
    Язык : Russian
    Default : Да
    Forced : Нет
    Цветовой диапазон : Limited
    Основные цвета : BT.709
    Характеристики трансфера : BT.709
    Коэффициенты матрицы : BT.709
    Аудио
    Идентификатор : 2
    Формат : AC-3
    Формат/Информация : Audio Coding 3
    Идентификатор кодека : A_AC3
    Продолжительность : 1 ч. 33 м.
    Вид битрейта : Постоянный
    Битрейт : 384 Кбит/сек
    Каналы : 6 каналов
    Расположение каналов : Front: L C R, Side: L R, LFE
    Частота : 48, 0 КГц
    Частота кадров : 31, 250 кадров/сек (1536 SPF)
    Битовая глубина : 16 бит
    Метод сжатия : С потерями
    Размер потока : 256 Мбайт (8%)
    Заголовок : iTunes
    Язык : Russian
    ServiceKind/String : Complete Main
    Default : Да
    Forced : Нет

    Скриншоты для ознакомления



    Все одноименные релизы в Клубе
    Время раздачи: 24/7 (до появления первых 3-5 скачавших)


    Онлайн видео Танки (2018) WEB-DL [H.264



    Танки (2018) WEB-DL [H.264/1080p-LQ]
    Рейтинг →
     (голосов: 1, оценка 3/5, голосовать можно 1 раз )

    Другие торренты по теме:

  • Танки (2018) WEB-DL [1080p] ATV


    • Комментарии (0):

      Информация

      Информация

        Посетители, находящиеся в группе Гости, не могут оставлять комментарии в данной новости.

        ↓ Меню




        ↓ Опрос

        Вы добавили сайт в закладки?
        Да
        Нет


        Top 10 за месяц (Фильмы)