.
Авторизация | Регистрация
Хочешь лучшие торренты? Добавь свой email!
Добавить

Торрент скачать бесплатно

  • support: webmaster@btracker.org
» » Красный цвет папоротника (1988) TVRip (серии 1-4 из 4) торрент скачать бесплатно


    Красный цвет папоротника (1988) TVRip (серии 1-4 из 4) торрент скачать бесплатно

    Опубликовал: Админ | Дата: 30-05-2018, 05:00 | .torrent скачали: 1

    Красный цвет папоротника (1988) TVRip (серии 1-4 из 4)Производство: СССР, Польша/Беларусьфильм
    Жанр: драма, военный
    Режиссер: Виктор Туров

    Актеры
    Борис Невзоров, Ежи Мольга, Валентинас Масальскис, Евгений Меньшов, Ингеборга Дапкунайте, Ольга Лысенко, Анджей Пречигс, Яцек Гузински, Юрий Горобец, Дарья Шпаликова и др.

    Описание

    Весной 1944 года в Яновских лесах Польши против фашистских оккупантов действовали отряды советских партизан и бойцы польского Сопротивления: Армия Людовой и Армия Крайовой, которая, подчиняясь буржуазному польскому правительству, находившемуся в Лондоне, придерживалась нейтралитета. Когда фашисты блокировали лес, советские партизаны, отразив первый удар, предложили предводителю Армии Крайовой — Бжезине — единый план выхода из окружения. Отвергнув предложение союзников, польские солдаты не смогли выйти из окружения и погибли в неравном бою.

    Возраст: 16+ (зрителям, достигшим 16 лет)
    Продолжительность: ~01: 05: 00 серия
    Качество видео: TVRip
    Видео: Xvid, 640x480 (4: 3), ~1200 Kbps
    Аудио: MP3, 2 ch, 128 Kbps

    Общее
    Полное имя : D: Красный цвет папоротника (1988)Красный цвет папоротника. 1 серия (1988).avi
    Формат : AVI
    Формат/Информация : Audio Video Interleave
    Размер файла : 604 Мбайт
    Продолжительность : 1 ч. 3 м.
    Общий поток : 1341 Кбит/сек
    Программа кодирования : Lavf57.41.100
    Видео
    Идентификатор : 0
    Формат : xvid
    Идентификатор кодека : xvid
    Продолжительность : 1 ч. 3 м.
    Битрейт : 1200 Кбит/сек
    Ширина : 640 пикселей
    Высота : 480 пикселей
    Соотношение сторон : 4: 3
    Частота кадров : 25, 000 кадров/сек
    Тип развёртки : Прогрессивная
    Бит/(Пиксели*Кадры) : 0.156
    Размер потока : 541 Мбайт (89%)
    Аудио
    Идентификатор : 1
    Формат : MPEG Audio
    Версия формата : Version 1
    Профиль формата : Layer 3
    Настройки формата : Joint stereo/MS Stereo
    Идентификатор кодека : 55
    Идентификатор кодека/Подсказка : MP3
    Продолжительность : 1 ч. 3 м.
    Вид битрейта : Постоянный
    Битрейт : 128 Кбит/сек
    Каналы : 2 канала
    Частота : 48, 0 КГц
    Метод сжатия : С потерями
    Размер потока : 57, 7 Мбайт (10%)
    Выравнивание : Соединение по промежуткам
    Продолжительность промежутка : 24 мс. (0, 60 видеокадр)
    Время предзагрузки промежутка : 24 мс.


    Онлайн видео Красный цвет папоротника (1988) TVRip (серии 1



    Красный цвет папоротника (1988) TVRip (серии 1-4 из 4)
    Рейтинг →
     (голосов: 1, оценка 3/5, голосовать можно 1 раз )

    Другие торренты по теме:

  • Красный цвет Бразилии / Rouge Bresil (2012) SATRip (серии 1-2 из 2) СВ Дубль (обновляемая)
  • Сергей Симонов | Цикл «Цвет супердержавы - красный» [7 книг] (2014-2017) [FB2]


    • Комментарии (0):

      Информация

      Информация

        Посетители, находящиеся в группе Гости, не могут оставлять комментарии в данной новости.

        ↓ Меню




        ↓ Опрос

        Вы добавили сайт в закладки?
        Да
        Нет


        Top 10 за месяц (Фильмы)