.
Авторизация | Регистрация
Хочешь лучшие торренты? Добавь свой email!
Добавить

Торрент скачать бесплатно

  • support: webmaster@btracker.org
» » Горы и камни / The Ottoman Lieutenant (2017) BDRip [H.264] торрент скачать бесплатно


    Горы и камни / The Ottoman Lieutenant (2017) BDRip [H.264] торрент скачать бесплатно

    Опубликовал: Админ | Дата: 30-05-2018, 05:00 | .torrent скачали: 0

    Горы и камни / The Ottoman Lieutenant (2017) BDRip [H.264]Производство: Турция, США/Eastern Sunrise Films, Y Production
    Жанр: Драма, Военный
    Режиссер: Джозеф Рубин

    Актеры
    Михил Хаушман, Гера Хилмарсдоттир, Джош Хартнетт, Бен Кингсли, Халук Бильгинер, Аффиф Бен Бадра, Пол Баррет, Джесика Тернер, Питер Хоскин, Сельчук Ёнтем, Элишка Слански, Хасан Сай

    Описание

    История любви между идеалистичной медсестрой-американкой и турецким офицером на фоне Первой мировой войны.

    Возраст: 16+ (зрителям, достигшим 16 лет)
    Рейтинг MPAA: R (лицам до 17 лет обязательно присутствие взрослого)
    Релиз от: R.G. Resident
    Продолжительность: 01: 50: 35
    Качество видео: BDRip
    Перевод: Дублированный (студия Пифагор)
    Субтитры: Отсутствуют
    Видео: H.264/AVC, 1024x428, ~1851 kbps
    Аудио: AC3, 6 ch, 384 kbps - Русский
    Общее
    Уникальный идентификатор : 186720536999095965781865827638595539680 (0x8C79113D7286780685C3B0AE5767D2E0)
    Полное имя : F: The.Ottoman.Lieutenant.2017.BDRip.AVC.R.G.Resident.mkv
    Формат : Matroska
    Версия формата : Version 4/Version 2
    Размер файла : 1, 73 Гбайт
    Продолжительность : 1 ч. 50 м.
    Общий поток : 2235 Кбит/сек
    Название фильма : The Ottoman Lieutenant (2017) BDRip-AVC от R.G. Resident
    Дата кодирования : UTC 2018-05-28 14: 17: 30
    Программа кодирования : mkvmerge v23.0.0 (\'The Bride Said No\') 64-bit
    Библиотека кодирования : libebml v1.3.6 + libmatroska v1.4.9
    Видео
    Идентификатор : 1
    Формат : AVC
    Формат/Информация : Advanced Video Codec
    Профиль формата : High@L4.1
    Настройки формата : CABAC/12 Ref Frames
    Параметр CABAC формата : Да
    Параметр RefFrames формата : 12 кадров
    Идентификатор кодека : V_MPEG4/ISO/AVC
    Продолжительность : 1 ч. 50 м.
    Битрейт : 1851 Кбит/сек
    Ширина : 1024 пикселя
    Высота : 428 пикселей
    Соотношение сторон : 2, 40: 1
    Режим частоты кадров : Постоянный
    Частота кадров : 23, 976 (24000/1001) кадра/сек
    Цветовое пространство : YUV
    Субдискретизация насыщенности : 4: 2: 0
    Битовая глубина : 8 бит
    Тип развёртки : Прогрессивная
    Бит/(Пиксели*Кадры) : 0.176
    Размер потока : 1, 43 Гбайт (83%)
    Заголовок : -Lexx-
    Библиотека кодирования : x264 core 155 r2901 7d0ff22
    Настройки программы : cabac=1/ref=12/deblock=1: -3: -2/analyse=0x3: 0x113/me=umh/subme=11/psy=1/psy_rd=1.05: 0.10/mixed_ref=1/me_range=48/chroma_me=1/trellis=2/8x8dct=1/cqm=0/deadzone=21, 11/fast_pskip=0/chroma_qp_offset=-3/threads=12/lookahead_threads=3/sliced_threads=0/nr=0/decimate=0/interlaced=0/bluray_compat=0/constrained_intra=0/bframes=16/b_pyramid=2/b_adapt=2/b_bias=0/direct=3/weightb=1/open_gop=0/weightp=2/keyint=240/keyint_min=23/scenecut=40/intra_refresh=0/rc_lookahead=40/rc=2pass/mbtree=0/bitrate=1851/ratetol=1.0/qcomp=0.60/qpmin=0/qpmax=69/qpstep=4/cplxblur=20.0/qblur=0.5/vbv_maxrate=50000/vbv_bufsize=62500/nal_hrd=none/filler=0/ip_ratio=1.40/pb_ratio=1.30/aq=1: 1.00
    Язык : English
    Default : Да
    Forced : Нет
    Цветовой диапазон : Limited
    Основные цвета : BT.709
    Характеристики трансфера : BT.709
    Коэффициенты матрицы : BT.709
    Аудио
    Идентификатор : 2
    Формат : AC-3
    Формат/Информация : Audio Coding 3
    Идентификатор кодека : A_AC3
    Продолжительность : 1 ч. 50 м.
    Вид битрейта : Постоянный
    Битрейт : 384 Кбит/сек
    Каналы : 6 каналов
    Расположение каналов : Front: L C R, Side: L R, LFE
    Частота : 48, 0 КГц
    Частота кадров : 31, 250 кадров/сек (1536 SPF)
    Битовая глубина : 16 бит
    Метод сжатия : С потерями
    Размер потока : 304 Мбайт (17%)
    Заголовок : Дубляж | Пифагор
    Язык : Russian
    ServiceKind/String : Complete Main
    Default : Да
    Forced : Нет
    Меню
    00: 00: 00.000 : : Chapter 01
    00: 09: 08.089 : : Chapter 02
    00: 18: 03.373 : : Chapter 03
    00: 23: 44.381 : : Chapter 04
    00: 32: 11.387 : : Chapter 05
    00: 44: 42.554 : : Chapter 06
    00: 52: 37.279 : : Chapter 07
    00: 59: 14.592 : : Chapter 08
    01: 08: 24.058 : : Chapter 09
    01: 18: 09.685 : : Chapter 10
    01: 26: 48.870 : : Chapter 11
    01: 34: 48.808 : : Chapter 12
    01: 43: 37.377 : : Chapter 13

    Скриншоты для ознакомления


    Все одноименные релизы в Клубе
    Время раздачи: c 10: 00 до 23: 00 (до появления первых 3-5 скачавших)


    Онлайн видео Горы и камни



    Горы и камни/The Ottoman Lieutenant (2017) BDRip [H.264]
    Рейтинг →
     (голосов: 1, оценка 4/5, голосовать можно 1 раз )

    Другие торренты по теме:

  • Горы и камни / The Ottoman Lieutenant (2017) BDRip [H.264 / 1080p] [EN / EN Sub]
  • Горы и камни / The Ottoman Lieutenant (2017) BDRip [H.264 / 720p] [MVO] [AD]
  • Горы и камни / The Ottoman Lieutenant (2017) HDRip [MVO] [AD]
  • Горы и камни / The Ottoman Lieutenant (2017) BDRemux [H.264 / 1080p] [EN / EN, Fr, Sp Sub]
  • Горы и камни / The Ottoman Lieutenant (2017) BDRip [H.264 / 1080p]
  • Горы и камни / The Ottoman Lieutenant (2017) BDRemux [H.264 / 1080p]
  • Горы и камни / The Ottoman Lieutenant (2017) BDRip
  • Горы и камни / The Ottoman Lieutenant (2017) BDRip [1080p] ATV


    • Комментарии (0):

      Информация

      Информация

        Посетители, находящиеся в группе Гости, не могут оставлять комментарии в данной новости.

        ↓ Меню




        ↓ Опрос

        Вы добавили сайт в закладки?
        Да
        Нет


        Top 10 за месяц (Фильмы)