.
Авторизация | Регистрация
Хочешь лучшие торренты? Добавь свой email!
Добавить

Торрент скачать бесплатно

  • support: webmaster@btracker.org
» » Бегущий по лезвию 2049 / Blade Runner 2049 (2017) (2017) BDRip [H.264 / 1080p-LQ] торрент скачать бесплатно


    Бегущий по лезвию 2049 / Blade Runner 2049 (2017) (2017) BDRip [H.264 / 1080p-LQ] торрент скачать бесплатно

    Опубликовал: Админ | Дата: 30-05-2018, 05:00 | .torrent скачали: 3

    Бегущий по лезвию 2049 / Blade Runner 2049 (2017) (2017) BDRip [H.264 / 1080p-LQ]Производство: США, Великобритания, Венгрия, Канада/Sony, Columbia Pictures, Alcon Entertainment
    Жанр: Фантастика, Триллер, Драма, Детектив
    Режиссер: Дени Вильнёв

    Актеры
    Райан Гослинг, Харрисон Форд, Ана де Армас, Сильвия Хукс, Робин Райт, Маккензи Дэвис, Карла Юри, Ленни Джеймс, Дэйв Батиста, Джаред Лето

    Описание

    В недалеком будущем мир населен людьми и репликантами, созданными выполнять самую тяжелую работу. Работа офицера полиции Кей — держать репликантов под контролем в условиях нарастающего напряжения… Пока он случайно не становится обладателем секретной информации, которая ставит под угрозу существование всего человечества. Желая найти ключ к разгадке, Кей решает разыскать Рика Декарда, бывшего офицера специального подразделения полиции Лос-Анджелеса, который бесследно исчез много лет назад.

    Возраст: 18+ (зрителям, достигшим 18 лет. запрещено для детей)
    Рейтинг MPAA: R (лицам до 17 лет обязательно присутствие взрослого)
    Релиз от: SanLex
    Продолжительность: 02: 43: 27
    Качество видео: BDRip
    Перевод: Дублированный (BD EUR)
    Субтитры: Русские, английские
    Видео: AVC/H.264, 1920x800, ~5 681 kb/s
    Аудио #01: AC3, 6 ch, 640 Kbps - Русский
    Аудио #02: AC3, 6 ch, 640 Kbps - Английский

    General
    Unique ID : 194279787100265291127101517737744794454 (0x9228ED0B7D2D3F70922837D35C2A0356)
    Complete name : Бегущий по лезвию 2049 - Blade Runner 2049 (2017) BDRip.mkv
    Format : Matroska
    Format version : Version 2
    File size : 7.95 GiB
    Duration : 2 h 43 min
    Overall bit rate : 6 963 kb/s
    Encoded date : UTC 2018-05-28 22: 16: 34
    Writing application : mkvmerge v7.8.0 (\'River Man\') 32bit built on Apr 3 2015 12: 11: 22
    Writing library : libebml v1.3.1 + libmatroska v1.4.2
    Video
    ID : 1
    Format : AVC
    Format/Info : Advanced Video Codec
    Format profile : High@L4.1
    Format settings : CABAC/4 Ref Frames
    Format settings, CABAC : Yes
    Format settings, RefFrames : 4 frames
    Codec ID : V_MPEG4/ISO/AVC
    Duration : 2 h 43 min
    Bit rate : 5 681 kb/s
    Width : 1 920 pixels
    Height : 800 pixels
    Display aspect ratio : 2.40: 1
    Frame rate mode : Constant
    Frame rate : 23.976 (24000/1001) FPS
    Color space : YUV
    Chroma subsampling : 4: 2: 0
    Bit depth : 8 bits
    Scan type : Progressive
    Bits/(Pixel*Frame) : 0.154
    Stream size : 6.33 GiB (80%)
    Title : Бегущий по лезвию 2049/Blade Runner 2049 (2017)
    Writing library : x264 core 152 r2851 ba24899
    Encoding settings : cabac=1/ref=4/deblock=1: -1: -1/analyse=0x3: 0x113/me=umh/subme=10/psy=1/psy_rd=1.00: 0.00/mixed_ref=1/me_range=32/chroma_me=1/trellis=2/8x8dct=1/cqm=0/deadzone=21, 11/fast_pskip=0/chroma_qp_offset=-2/threads=6/lookahead_threads=1/sliced_threads=0/nr=0/decimate=1/interlaced=0/bluray_compat=0/constrained_intra=0/bframes=8/b_pyramid=2/b_adapt=2/b_bias=0/direct=3/weightb=1/open_gop=0/weightp=2/keyint=250/keyint_min=23/scenecut=40/intra_refresh=0/rc_lookahead=60/rc=2pass/mbtree=0/bitrate=5681/ratetol=1.0/qcomp=0.60/qpmin=0/qpmax=69/qpstep=4/cplxblur=20.0/qblur=0.5/vbv_maxrate=14000/vbv_bufsize=14000/nal_hrd=none/filler=0/ip_ratio=1.40/pb_ratio=1.30/aq=1: 1.00
    Language : English
    Default : Yes
    Forced : No
    Audio #1
    ID : 2
    Format : AC-3
    Format/Info : Audio Coding 3
    Codec ID : A_AC3
    Duration : 2 h 43 min
    Bit rate mode : Constant
    Bit rate : 640 kb/s
    Channel(s) : 6 channels
    Channel positions : Front: L C R, Side: L R, LFE
    Sampling rate : 48.0 kHz
    Frame rate : 31.250 FPS (1536 SPF)
    Bit depth : 16 bits
    Compression mode : Lossy
    Stream size : 748 MiB (9%)
    Language : Russian
    Service kind : Complete Main
    Default : Yes
    Forced : No
    Audio #2
    ID : 3
    Format : AC-3
    Format/Info : Audio Coding 3
    Codec ID : A_AC3
    Duration : 2 h 43 min
    Bit rate mode : Constant
    Bit rate : 640 kb/s
    Channel(s) : 6 channels
    Channel positions : Front: L C R, Side: L R, LFE
    Sampling rate : 48.0 kHz
    Frame rate : 31.250 FPS (1536 SPF)
    Bit depth : 16 bits
    Compression mode : Lossy
    Stream size : 748 MiB (9%)
    Language : English
    Service kind : Complete Main
    Default : No
    Forced : No
    Text #1
    ID : 4
    Format : UTF-8
    Codec ID : S_TEXT/UTF8
    Codec ID/Info : UTF-8 Plain Text
    Language : Russian
    Default : Yes
    Forced : Yes
    Text #2
    ID : 5
    Format : UTF-8
    Codec ID : S_TEXT/UTF8
    Codec ID/Info : UTF-8 Plain Text
    Language : Russian
    Default : No
    Forced : No
    Text #3
    ID : 6
    Format : UTF-8
    Codec ID : S_TEXT/UTF8
    Codec ID/Info : UTF-8 Plain Text
    Language : English
    Default : No
    Forced : No
    Menu
    00: 00: 00.000 : : Chapter 01
    00: 12: 36.172 : : Chapter 02
    00: 23: 29.282 : : Chapter 03
    00: 37: 00.885 : : Chapter 04
    00: 42: 50.317 : : Chapter 05
    00: 49: 24.503 : : Chapter 06
    00: 58: 35.553 : : Chapter 07
    01: 04: 10.680 : : Chapter 08
    01: 15: 47.292 : : Chapter 09
    01: 25: 12.482 : : Chapter 10
    01: 36: 15.060 : : Chapter 11
    01: 50: 55.106 : : Chapter 12
    02: 01: 36.872 : : Chapter 13
    02: 08: 40.379 : : Chapter 14
    02: 16: 42.485 : : Chapter 15
    02: 27: 46.732 : : Chapter 16

    x264 info: frame I: 1513 Avg QP: 12.53 size: 160284
    x264 info: frame P: 46932 Avg QP: 13.65 size: 68099
    x264 info: frame B: 186706 Avg QP: 15.23 size: 18989

    Скриншоты для ознакомления


    Все одноименные релизы в Клубе
    Время раздачи: 24/7 (до появления первых 3-5 скачавших)


    Онлайн видео Бегущий по лезвию 2049



    Бегущий по лезвию 2049/Blade Runner 2049 (2017) (2017) BDRip [H.264/1080p-LQ]
    Рейтинг →
     (голосов: 1, оценка 5/5, голосовать можно 1 раз )

    Другие торренты по теме:

  • Бегущий по лезвию / Blade Runner (1982) HDRip [Final Cut] скачать через торрент бесплатно
  • Бегущий по лезвию / Blade Runner (1982) BDRip [H.264 / 1080p] [The Final Cut]
  • Бегущий по лезвию / Blade Runner (1982) [Final Cut] AC3 5.1 [Solod]
  • Бегущий по лезвию бритвы / Blade Runner (1982) BDRip [H.265 / 720р-LQ] [Final Cut]
  • Бегущий по лезвию 2049 / Blade Runner 2049 (2017) WEBRip [H.264 / 1080p] [Трейлер#2] [EN]
  • Blade Runner: Black Out 2022 | Бегущий по лезвию: отключение света 2022 [2017, Special, 1 эп.] WEB-DL 1080p raw
  • Hans Zimmer & Benjamin Wallfisch - Blade Runner 2049 / Бегущий по лезвию 2049 (Original Motion Picture Soundtrack) (2017) [MP3|320 кб / с]<Soundtrack>
  • Hans Zimmer & Benjamin Wallfisch - Blade Runner 2049 / Бегущий по лезвию 2049 (Original Motion Picture Soundtrack) (2017) [FLAC|Lossless|WEB-DL|tracks]<Soundtrack>


    • Комментарии (0):

      Информация

      Информация

        Посетители, находящиеся в группе Гости, не могут оставлять комментарии в данной новости.

        ↓ Меню




        ↓ Опрос

        Вы добавили сайт в закладки?
        Да
        Нет


        Top 10 за месяц (Фильмы)