.
Авторизация | Регистрация
Хочешь лучшие торренты? Добавь свой email!
Добавить

Торрент скачать бесплатно

  • support: webmaster@btracker.org
» » Tomb Raider: Лара Крофт / Tomb Raider (2018) WEB-DL [H.264 / 1080p-LQ] [EN / EN Sub] торрент скачать бесплатно


    Tomb Raider: Лара Крофт / Tomb Raider (2018) WEB-DL [H.264 / 1080p-LQ] [EN / EN Sub] торрент скачать бесплатно

    Опубликовал: Админ | Дата: 30-05-2018, 05:00 | .torrent скачали: 4

    Tomb Raider: Лара Крофт / Tomb Raider (2018) WEB-DL [H.264 / 1080p-LQ] [EN / EN Sub]Производство: Великобритания, США/GK Films, Metro-Goldwyn-Mayer (MGM), Square Enix
    Жанр: Боевик, Приключения, Драма, Фэнтези, Детектив, Триллер
    Режиссер: Роар Утхауг
    Продюсер: Грэм Кинг, Ной Хьюз, Патрик МакКормик, ...

    Актеры
    Алисия Викандер, Доминик Уэст, Уолтон Гоггинс, Дэниэл Ву, Кристин Скотт Томас, Дерек Джекоби, Александр Виллауме, Тамер Барджаг, Эдриан Коллинз, Кинэн Эррисон ...

    Описание

    Лара Крофт — весьма самостоятельная дочь эксцентричного искателя приключений, который пропал, едва она стала подростком. Теперь ей двадцать один, она бесцельно проживает свою жизнь, курьером рассекая на байке по забитым улицам восточного Лондона. Решительно настроенная пробиться сама, она отказывается брать на себя руководство глобальной империей отца, столь же категорично отвергая мысль о том, что он действительно пропал. Слыша советы о том, что ей нужно смириться с этим фактом и жить дальше после семи лет бесплодных поисков, Лара уже и сама не понимает, что же заставляет ее распутывать обстоятельства его таинственного исчезновения.

    Возраст: 16+ (зрителям, достигшим 16 лет)
    Рейтинг MPAA: PG-13 (детям до 13 лет просмотр нежелателен)
    Премьера (мир): 2 марта 2018, ...
    Премьера (РФ): 15 марта 2018, Каро-Премьер

    Продолжительность: 01: 57: 49
    Качество видео: WEB-DL 1080p
    Перевод: Отсутствует
    Язык озвучки: Английский
    Субтитры: Английские
    Видео: AVC, 1920x802 (2.40: 1), 23.976 fps, 4 525 Kbps (0.123 bit/pixel)
    Аудио: AC-3, 48.0 KHz, 6 ch, 384 Kbps, CBR (English)
    General
    Complete name : Tomb.Raider.2018.1080p.WEB-DL.DD5.1.H264.mkv
    Format : Matroska
    Format version : Version 4/Version 2
    File size : 4.04 GiB
    Duration : 1 h 57 min
    Overall bit rate : 4 911 kb/s
    Encoded date : UTC 2018-05-29 05: 43: 45
    Writing application : mkvmerge v22.0.0 (\'At The End Of The World\') 64-bit
    Writing library : libebml v1.3.5 + libmatroska v1.4.8
    Video
    ID : 1
    Format : AVC
    Format/Info : Advanced Video Codec
    Format profile : High@L4
    Format settings : CABAC/5 Ref Frames
    Format settings, CABAC : Yes
    Format settings, ReFrames : 5 frames
    Codec ID : V_MPEG4/ISO/AVC
    Duration : 1 h 57 min
    Bit rate : 4 525 kb/s
    Width : 1 920 pixels
    Height : 802 pixels
    Display aspect ratio : 2.40: 1
    Frame rate mode : Constant
    Frame rate : 23.976 (24000/1001) FPS
    Color space : YUV
    Chroma subsampling : 4: 2: 0
    Bit depth : 8 bits
    Scan type : Progressive
    Bits/(Pixel*Frame) : 0.123
    Stream size : 3.72 GiB (92%)
    Language : English
    Default : Yes
    Forced : No
    Color range : Limited
    Color primaries : BT.709
    Transfer characteristics : BT.709
    Matrix coefficients : BT.709
    Audio
    ID : 2
    Format : AC-3
    Format/Info : Audio Coding 3
    Codec ID : A_AC3
    Duration : 1 h 57 min
    Bit rate mode : Constant
    Bit rate : 384 kb/s
    Channel(s) : 6 channels
    Channel positions : Front: L C R, Side: L R, LFE
    Sampling rate : 48.0 kHz
    Frame rate : 31.250 FPS (1536 SPF)
    Bit depth : 16 bits
    Compression mode : Lossy
    Delay relative to video : -42 ms
    Stream size : 324 MiB (8%)
    Language : English
    Service kind : Complete Main
    Default : Yes
    Forced : No
    Text
    ID : 3
    Format : UTF-8
    Codec ID : S_TEXT/UTF8
    Codec ID/Info : UTF-8 Plain Text
    Duration : 1 h 50 min
    Bit rate : 30 b/s
    Count of elements : 941
    Stream size : 25.0 KiB (0%)
    Language : English
    Default : Yes
    Forced : No
    Menu
    00: 00: 00.000 : en: 1
    00: 06: 50.000 : en: 2
    00: 11: 41.000 : en: 3
    00: 17: 28.000 : en: 4
    00: 24: 04.000 : en: 5
    00: 30: 42.000 : en: 6
    00: 35: 42.000 : en: 7
    00: 41: 38.000 : en: 8
    00: 46: 55.000 : en: 9
    00: 53: 42.000 : en: 10
    00: 59: 38.000 : en: 11
    01: 04: 50.000 : en: 12
    01: 09: 58.000 : en: 13
    01: 16: 50.000 : en: 14
    01: 21: 50.000 : en: 15
    01: 27: 41.000 : en: 16
    01: 32: 56.000 : en: 17
    01: 38: 41.000 : en: 18
    01: 44: 44.000 : en: 19
    01: 51: 20.000 : en: 20


    Онлайн видео Tomb Raider: Лара Крофт



    Tomb Raider: Лара Крофт/Tomb Raider (2018) WEB-DL [H.264/1080p-LQ] [EN/EN Sub]
    Рейтинг →
     (голосов: 1, оценка 5/5, голосовать можно 1 раз )

    Другие торренты по теме:

  • Tomb Raider: The Angel of Darkness / Tomb Raider: Ангел Тьмы (2003) [En / Ge] (20171016) License GOG
  • Tomb Raider: Лара Крофт / Tomb Raider (2018) WEB-DLRip [H.264 / 1080p-LQ] [MVO, AD]
  • Tomb Raider: Лара Крофт / Tomb Raider (2018) WEB-DLRip [H.264 / 720p-LQ] [Звук c TS] [AD]
  • Tomb Raider: Лара Крофт / Tomb Raider (2018) HDRip [H.264 / 720p-LQ] [MVO]
  • Tomb Raider: Лара Крофт / Tomb Raider (2018) HDRip [MVO]
  • Tomb Raider: Лара Крофт / Tomb Raider (2018) WEB-DL [H.264 / 1080p-LQ] [MVO]
  • Tomb Raider: Лара Крофт / Tomb Raider (2018) BDRip [H.264 / 720p] [MVO]
  • Tomb Raider: Лара Крофт / Tomb Raider (2018) BDRip [H.264 / 1080p] [MVO]


    • Комментарии (0):

      Информация

      Информация

        Посетители, находящиеся в группе Гости, не могут оставлять комментарии в данной новости.

        ↓ Меню




        ↓ Опрос

        Вы добавили сайт в закладки?
        Да
        Нет


        Top 10 за месяц (Фильмы)