.
Авторизация | Регистрация
Хочешь лучшие торренты? Добавь свой email!
Добавить

Торрент скачать бесплатно

  • support: webmaster@btracker.org
» » Два одиночества (2018) WEBRip торрент скачать бесплатно


    Два одиночества (2018) WEBRip торрент скачать бесплатно

    Опубликовал: Админ | Дата: 30-05-2018, 05:00 | .torrent скачали: 1

    Два одиночества (2018) WEBRipПроизводство: Россия
    Жанр: Короткометражный, драма
    Режиссер: Виталий Манюков

    Актеры
    Григорий Верник, Евдокия Смирнова, Игорь Верник, Светлана Макарова-Васильченко, Никита Бесогонов, Анна Большова, Марк Попов, Полина Слепакова, Ульяна Иващенко, Ислам Ганджаев

    Описание

    В класс приходит новая девочка — Эля — и сразу становится объектом внимания своих одноклассников. Ей будет очень тяжело найти своё место в чужом коллективе, а дома ждёт ненавистный отчим… Это история о школе, взрослении и подростковом одиночестве в толпе.

    Релиз от: Aлexandr
    Продолжительность: 00: 24: 01
    Качество видео: WEBRip
    Субтитры: Отсутствуют
    Видео: Xvid, 720x400 (16: 9), ~1880 Kbps
    Аудио: AC3, 2 ch, 192 Kbps

    Общее
    Полное имя : D: Два одиночества (2018).by.Алехаndr.avi
    Формат : AVI
    Формат/Информация : Audio Video Interleave
    Размер файла : 358 Мбайт
    Продолжительность : 24 м. 1 с.
    Общий поток : 2081 Кбит/сек
    Программа кодирования : Lavf57.41.100
    Видео
    Идентификатор : 0
    Формат : xvid
    Идентификатор кодека : xvid
    Продолжительность : 24 м. 1 с.
    Битрейт : 1878 Кбит/сек
    Ширина : 720 пикселей
    Высота : 400 пикселей
    Соотношение сторон : 16: 9
    Частота кадров : 25, 000 кадров/сек
    Тип развёртки : Прогрессивная
    Бит/(Пиксели*Кадры) : 0.261
    Размер потока : 323 Мбайт (90%)
    Аудио
    Идентификатор : 1
    Формат : AC-3
    Формат/Информация : Audio Coding 3
    Идентификатор кодека : 2000
    Продолжительность : 24 м. 1 с.
    Вид битрейта : Постоянный
    Битрейт : 192 Кбит/сек
    Каналы : 2 канала
    Расположение каналов : Front: L R
    Частота : 48, 0 КГц
    Частота кадров : 31, 250 кадров/сек (1536 SPF)
    Битовая глубина : 16 бит
    Метод сжатия : С потерями
    Размер потока : 33, 0 Мбайт (9%)
    Выравнивание : Соединение по промежуткам
    Продолжительность промежутка : 32 мс. (0, 80 видеокадр)
    ServiceKind/String : Complete Main

    Скриншоты для ознакомления



    Все одноименные релизы в Клубе
    Время раздачи: 24/7 (круглосуточно) (до появления первых 3-5 скачавших)


    Два одиночества (2018) WEBRip
    Рейтинг →
     (голосов: 1, оценка 3/5, голосовать можно 1 раз )

    Другие торренты по теме:

  • Нильс Кристи | По ту сторону одиночества. Сообщества необычных людей (2015) [FB2] скачать через торрент бесплатно
  • Габриэль Гарсия Маркес | Сто лет одиночества (2015) [MP3] скачать через торрент бесплатно
  • Инна Бачинская | Темный ангел одиночества (2015) [FB2] скачать через торрент бесплатно
  • Владимир Соловьев, Елена Клепикова | Быть Иосифом Бродским. Апофеоз одиночества (2015) [FB2] скачать через торрент бесплатно
  • МП РПЦ (изд.) | Под стеклянным куполом одиночества (2012) [DJVU]
  • Габриэль Гарсия Маркес | Сто лет одиночества (2015) [m4b|AAC]
  • Надежда Либерман | Как улучшить личную жизнь. 35 правил преодоления одиночества (2014) [FB2]
  • Юлия Косоротова | Краткий курс одиночества. Как быть счастливым наедине с собой (2016) [FB2]


    • Комментарии (0):

      Информация

      Информация

        Посетители, находящиеся в группе Гости, не могут оставлять комментарии в данной новости.

        ↓ Меню




        ↓ Опрос

        Вы добавили сайт в закладки?
        Да
        Нет


        Top 10 за месяц (Фильмы)