.
Авторизация | Регистрация
Хочешь лучшие торренты? Добавь свой email!
Добавить

Торрент скачать бесплатно

  • support: webmaster@btracker.org
» » Два билета на тот свет (2016) WEBRip торрент скачать бесплатно


    Два билета на тот свет (2016) WEBRip торрент скачать бесплатно

    Опубликовал: Админ | Дата: 30-05-2018, 05:00 | .torrent скачали: 0

    Два билета на тот свет (2016) WEBRipПроизводство: Россия, Румыния
    Жанр: Короткометражный, ужасы, триллер, детектив
    Режиссер: Серж Даровский

    Актеры
    Дианна Дезмари, Александр Грановецкий, Сергей Линков, Юрий Уткин

    Описание

    Двое ученых, историк Александр Яровой и физик Александр Гранин, случайно обнаруживают фотографии, на которых изображены надгробия с подозрительными датами жизни. Друзья отправляются в Северную Румынию, чтобы расследовать это дело. Никто из них не ожидал, что столкнется со смертельной опасностью, исходящей от призраков, которые вот уже более 500 лет мстят живым за свою гибель.

    Релиз от: Aлexandr
    Продолжительность: 00: 20: 19
    Качество видео: WEBRip
    Субтитры: Отсутствуют
    Видео: Xvid, 720x400 (16: 9), ~1825 Kbps
    Аудио: AC3, 2 ch, 192 Kbps

    Общее
    Полное имя : D: Два билета на тот свет (2016).by.Алехаndr.avi
    Формат : AVI
    Формат/Информация : Audio Video Interleave
    Размер файла : 295 Мбайт
    Продолжительность : 20 м. 19 с.
    Общий поток : 2028 Кбит/сек
    Программа кодирования : Lavf57.41.100
    Видео
    Идентификатор : 0
    Формат : xvid
    Идентификатор кодека : xvid
    Продолжительность : 20 м. 19 с.
    Битрейт : 1825 Кбит/сек
    Ширина : 720 пикселей
    Высота : 400 пикселей
    Соотношение сторон : 16: 9
    Частота кадров : 25, 000 кадров/сек
    Тип развёртки : Прогрессивная
    Бит/(Пиксели*Кадры) : 0.254
    Размер потока : 265 Мбайт (90%)
    Аудио
    Идентификатор : 1
    Формат : AC-3
    Формат/Информация : Audio Coding 3
    Идентификатор кодека : 2000
    Продолжительность : 20 м. 19 с.
    Вид битрейта : Постоянный
    Битрейт : 192 Кбит/сек
    Каналы : 2 канала
    Расположение каналов : Front: L R
    Частота : 48, 0 КГц
    Частота кадров : 31, 250 кадров/сек (1536 SPF)
    Битовая глубина : 16 бит
    Метод сжатия : С потерями
    Размер потока : 27, 9 Мбайт (9%)
    Выравнивание : Соединение по промежуткам
    Продолжительность промежутка : 32 мс. (0, 80 видеокадр)
    ServiceKind/String : Complete Main

    Скриншоты для ознакомления



    Все одноименные релизы в Клубе
    Время раздачи: 24/7 (круглосуточно) (до появления первых 3-5 скачавших)


    Два билета на тот свет (2016) WEBRip
    Рейтинг →
     (голосов: 1, оценка 4/5, голосовать можно 1 раз )

    Другие торренты по теме:

  • Виктория Платова | Два билета в никогда (2016) [FB2]
  • Два билета в рай / Two Tickets to Paradise (2006) DVDRip
  • Андрей Круз, Андрей Царев | Два билета туда (2018) [FB2]
  • Без Билета - Маяк (2018) [MP3|320 Kbps] <Rock>
  • Андрей Круз, Андрей Царев | Земля лишних. Два билета туда (2018) [MP3]
  • Два билета на дневной сеанс (1966) DVB [H.264 / 1080i-LQ]


    • Комментарии (0):

      Информация

      Информация

        Посетители, находящиеся в группе Гости, не могут оставлять комментарии в данной новости.

        ↓ Меню




        ↓ Опрос

        Вы добавили сайт в закладки?
        Да
        Нет


        Top 10 за месяц (Фильмы)