.
Авторизация | Регистрация
Хочешь лучшие торренты? Добавь свой email!
Добавить

Торрент скачать бесплатно

  • support: webmaster@btracker.org
» » Редкая бабочка / The Butterfly Tree (2017) BDRip торрент скачать бесплатно


    Редкая бабочка / The Butterfly Tree (2017) BDRip торрент скачать бесплатно

    Опубликовал: Админ | Дата: 30-05-2018, 05:00 | .torrent скачали: 1

    Редкая бабочка / The Butterfly Tree (2017) BDRipПроизводство: Австралия, Cowlick Entertainment Group
    Жанр: Драма, комедия, семейный
    Режиссер: Присцилла Камерон
    Продюсер: Фил Бремнер, Бриджет Кэллоу, Саймон Кэллоу-Райт

    Актеры
    Мелисса Джордж, Ивен Лесли, Эд Оксенбульд, Софи Лоу, Элла Джаз Макроканис, Лорен Диллон, Паула Назарски, Стив Нейшн, Лайам Хоп Йек Доддс, Тэмми Сара Линде

    Описание

    Одинокий отец и его сын-подросток влюбляются в новую соседку, Эвелин, королеву бурлеска.

    Возраст: 18+ (зрителям, достигшим 18 лет. запрещено для детей)
    Дата мировой премьеры: 11 августа 2017
    Дата российской премьеры: 10 мая 2018, Кинологистика
    Продолжительность: 01: 36: 04
    Качество видео: BDRip
    Перевод: Многоголосый закадровый, профессиональный (iTunes)
    Субтитры: отсутствуют.
    Видео: Xvid, 720x320, ~1719 kbps
    Аудио: AC3, 6 ch, 384 kbps

    The.Butterfly.Tree.2017.BDRip.avi
    Format : AVI
    Format/Info : Audio Video Interleave
    File size : 1.42 GiB
    Duration : 1 h 36 min
    Overall bit rate : 2 112 kb/s
    Writing application : VirtualDubMod 1.5.10.2 (build 2540/release)
    Writing library : VirtualDubMod build 2540/release
    Video
    ID : 0
    Format : MPEG-4 Visual
    Format profile : Advanced Simple@L5
    Format settings : BVOP1/Custom Matrix
    Format settings, BVOP : 1
    Format settings, QPel : No
    Format settings, GMC : No warppoints
    Format settings, Matrix : Custom
    Codec ID : XVID
    Codec ID/Hint : XviD
    Duration : 1 h 36 min
    Bit rate : 1 719 kb/s
    Width : 720 pixels
    Height : 320 pixels
    Display aspect ratio : 2.25: 1
    Frame rate : 23.976 (24000/1001) FPS
    Color space : YUV
    Chroma subsampling : 4: 2: 0
    Bit depth : 8 bits
    Scan type : Progressive
    Compression mode : Lossy
    Bits/(Pixel*Frame) : 0.311
    Stream size : 1.15 GiB (81%)
    Writing library : XviD 73
    Audio
    ID : 1
    Format : AC-3
    Format/Info : Audio Coding 3
    Codec ID : 2000
    Duration : 1 h 36 min
    Bit rate mode : Constant
    Bit rate : 384 kb/s
    Channel(s) : 6 channels
    Channel positions : Front: L C R, Side: L R, LFE
    Sampling rate : 48.0 kHz
    Frame rate : 31.250 FPS (1536 SPF)
    Bit depth : 16 bits
    Compression mode : Lossy
    Stream size : 264 MiB (18%)
    Alignment : Split accross interleaves
    Interleave, duration : 42 ms (1.00 video frame)
    Interleave, preload duratio : 500 ms
    Service kind : Complete Main

    Скриншоты для ознакомления



    Все одноименные релизы в Клубе
    Время раздачи: 24/7 (до появления первых 3-5 скачавших)


    Онлайн видео Редкая бабочка



    Редкая бабочка/The Butterfly Tree (2017) BDRip
    Рейтинг →
     (голосов: 1, оценка 4/5, голосовать можно 1 раз )

    Другие торренты по теме:

  • Редкая бабочка / The Butterfly Tree (2017) BDRip [H.264 / 720p]
  • Редкая бабочка / The Butterfly Tree (2017) BDRip [1080p] ATV (MVO)


    • Комментарии (0):

      Информация

      Информация

        Посетители, находящиеся в группе Гости, не могут оставлять комментарии в данной новости.

        ↓ Меню




        ↓ Опрос

        Вы добавили сайт в закладки?
        Да
        Нет


        Top 10 за месяц (Фильмы)