.
Авторизация | Регистрация
Хочешь лучшие торренты? Добавь свой email!
Добавить

Торрент скачать бесплатно

  • support: webmaster@btracker.org
» » Чёрные воды / Black Water (2018) BDRip [H.264] [MVO] торрент скачать бесплатно


    Чёрные воды / Black Water (2018) BDRip [H.264] [MVO] торрент скачать бесплатно

    Опубликовал: Админ | Дата: 30-05-2018, 05:00 | .torrent скачали: 3

    Чёрные воды / Black Water (2018) BDRip [H.264] [MVO]Производство: Канада | Dawn\'s Light, Rodin Entertainment
    Жанр: Боевик, драма
    Режиссер: Павел Патрики
    Продюсер: Джейсон Черубини, Александр Фергюсон, Тайлер В. Конни

    Актеры
    Аарон О\'Коннелл, Дольф Лундгрен, Жан-Клод Ван Дамм, Патрик Килпатрик, Ал Сапиенца, Джасмин Уолтц, Джон Пози, Кристофер Ван Варенберг, Кортни Би Турк

    Описание

    Агент Уилер пробуждается в секретной тюрьме ЦРУ, расположенной на борту атомной подводной лодки. Обвиненный в предательстве, он пытается очистить свое имя и выйти сухим из воды, заручившись помощью не менее пробивного сокамерника.

    Рейтинг MPAA: R (лицам до 17 лет обязательно присутствие взрослого)
    Дата мировой премьеры: 5 апреля 2018
    Продолжительность: 01: 44: 36
    Качество видео: BDRip
    Перевод: Двуголосый закадровый (HiWay Grope)
    Субтитры: Отсутствуют
    Видео: AVC/H.264, 1024x428 (2.40: 1), ~2071 Kbps, 23.976 fps
    Аудио: AC3, 2 ch, 48.0 kHz, 192 kbps CBR

    General
    Unique ID : 191433900892532322940029948017255346178 (0x9004D40591B47A6CB9019A8ABEAB7002)
    Complete name : D: Black_Water_2018_BDRip-AVC_HiWay_Grope.mkv
    Format : Matroska
    Format version : Version 4/Version 2
    File size : 1.65 GiB
    Duration : 1 h 44 min
    Overall bit rate : 2 265 kb/s
    Movie name : Black Water (2018) from ExKinoRay
    Encoded date : UTC 2018-05-28 13: 08: 19
    Writing application : mkvmerge v23.0.0 (\'The Bride Said No\') 64-bit
    Writing library : libebml v1.3.6 + libmatroska v1.4.9
    Video
    ID : 1
    Format : AVC
    Format/Info : Advanced Video Codec
    Format profile : High@L4.1
    Format settings, CABAC : Yes
    Format settings, ReFrames : 12 frames
    Codec ID : V_MPEG4/ISO/AVC
    Duration : 1 h 44 min
    Bit rate : 2 071 kb/s
    Width : 1 024 pixels
    Height : 428 pixels
    Display aspect ratio : 2.40: 1
    Frame rate mode : Constant
    Frame rate : 23.976 (23976/1000) FPS
    Color space : YUV
    Chroma subsampling : 4: 2: 0
    Bit depth : 8 bits
    Scan type : Progressive
    Bits/(Pixel*Frame) : 0.197
    Stream size : 1.51 GiB (91%)
    Title : Black_Water_2018_BDRip-AVC_HiWay_Grope
    Writing library : x264 core 152 r2851 ba24899
    Encoding settings : cabac=1/ref=12/deblock=1: -2: -2/analyse=0x3: 0x113/me=umh/subme=10/psy=1/psy_rd=1.05: 0.10/mixed_ref=1/me_range=32/chroma_me=1/trellis=2/8x8dct=1/cqm=0/deadzone=21, 11/fast_pskip=0/chroma_qp_offset=-3/threads=12/lookahead_threads=3/sliced_threads=0/nr=0/decimate=0/interlaced=0/bluray_compat=0/constrained_intra=0/bframes=14/b_pyramid=2/b_adapt=2/b_bias=0/direct=3/weightb=1/open_gop=0/weightp=2/keyint=240/keyint_min=23/scenecut=40/intra_refresh=0/rc_lookahead=40/rc=2pass/mbtree=0/bitrate=2071/ratetol=1.0/qcomp=0.60/qpmin=0/qpmax=51/qpstep=4/cplxblur=20.0/qblur=0.5/vbv_maxrate=50000/vbv_bufsize=62500/nal_hrd=none/filler=0/ip_ratio=1.40/pb_ratio=1.30/aq=2: 0.90
    Language : English
    Default : Yes
    Forced : No
    Color range : Limited
    Color primaries : BT.709
    Transfer characteristics : BT.709
    Matrix coefficients : BT.709
    Audio
    ID : 2
    Format : AC-3
    Format/Info : Audio Coding 3
    Format settings, Endianness : Big
    Codec ID : A_AC3
    Duration : 1 h 44 min
    Bit rate mode : Constant
    Bit rate : 192 kb/s
    Channel(s) : 2 channels
    Channel positions : Front: L R
    Sampling rate : 48.0 kHz
    Frame rate : 31.250 FPS (1536 spf)
    Bit depth : 16 bits
    Compression mode : Lossy
    Stream size : 144 MiB (8%)
    Title : HiWay_Grope
    Language : Russian
    Service kind : Complete Main
    Default : Yes
    Forced : No

    Скриншоты для ознакомления



    Все одноименные релизы в Клубе
    Время раздачи: 24/7 (до появления первых 3-5 скачавших)


    Онлайн видео Чёрные воды



    Чёрные воды/Black Water (2018) BDRip [H.264] [MVO]
    Рейтинг →
     (голосов: 1, оценка 4/5, голосовать можно 1 раз )

    Другие торренты по теме:

  • Чёрные воды / Black Water (2018) WEB-DLRip [MVO] [AD]
  • Чёрные воды / Black Water (2018) WEB-DLRip [H.264 / 720p-LQ] [MVO]
  • Чёрные воды / Black Water (2018) BDRip [H.264 / 720p] [MVO]
  • Чёрные воды / Black Water (2018) BDRip [MVO]


    • Комментарии (0):

      Информация

      Информация

        Посетители, находящиеся в группе Гости, не могут оставлять комментарии в данной новости.

        ↓ Меню




        ↓ Опрос

        Вы добавили сайт в закладки?
        Да
        Нет


        Top 10 за месяц (Фильмы)