.
Авторизация | Регистрация
Хочешь лучшие торренты? Добавь свой email!
Добавить

Торрент скачать бесплатно

  • support: webmaster@btracker.org
» » Бремя / Cargo (2017) WEB-DL [H.264 / 1080p-LQ] торрент скачать бесплатно


    Бремя / Cargo (2017) WEB-DL [H.264 / 1080p-LQ] торрент скачать бесплатно

    Опубликовал: Админ | Дата: 30-05-2018, 05:00 | .torrent скачали: 0

    Бремя / Cargo (2017) WEB-DL [H.264 / 1080p-LQ]Производство: Австралия/Addictive Pictures, Causeway Films, Head Gear Films
    Жанр: Драма, Ужасы
    Режиссер: Бен Хоулинг, Иоланда Рамке

    Актеры
    Мартин Фриман, Энтони Хэйес, Сьюзи Портер, Карин Пиритос, Крис МакКвейд, Наташа Вэнганин, Брюс Картер, Симоне Ландерс, Дэвид Галпилил, Джоесиа Амос

    Описание

    На Землю обрушивается зомби-апокалипсис. Главный герой теряет всю свою семью, кроме малышки-дочки. Он отправляется с ней в опасное приключение, чтобы найти аборигенное племя, которое может подарить единственный шанс выжить его дочери.

    Дата мировой премьеры: 6 октября 2017
    Продолжительность: 01: 44: 08
    Качество видео: WEB-DL
    Перевод:
    Многоголосый закадровый профессиональныйNewStudio
    Многоголосый закадровый, любительскийHDRezka studio
    Субтитры: нет
    Видео: AVC/H.264, 1920х804, ~5110 Kbps, 24 fps
    Аудио 1: AC3, 6 ch, 384 Kbps - Русский NewStudio
    Аудио 2: AC3, 6 ch, 384 Kbps - Английский
    Аудио 3: AC3, 6 ch, 384 Kbps - Русский HDRezka studio
    Внимание! Присутствует ненормативная лексика!
    #
    Общее
    Уникальный идентификатор : 305717385803867229349812126652230011113 (0xE5FF06DB50092E8914E757FEBE4008E9)
    Полное имя : F: TorrentsBremya.2018.WEBDL.1080p.NewStudio.TV.ADFree.mkv
    Формат : Matroska
    Версия формата : Version 4/Version 2
    Размер файла : 4, 55 Гбайт
    Продолжительность : 1 ч. 44 м.
    Общий поток : 6253 Кбит/сек
    Дата кодирования : UTC 2018-05-28 15: 52: 56
    Программа кодирования : mkvmerge v23.0.0 (\'The Bride Said No\') 64-bit
    Библиотека кодирования : libebml v1.3.6 + libmatroska v1.4.9/Lavf57.71.100
    Видео
    Идентификатор : 1
    Формат : AVC
    Формат/Информация : Advanced Video Codec
    Профиль формата : Main@L4
    Настройки формата : CABAC/4 Ref Frames
    Параметр CABAC формата : Да
    Параметр RefFrames формата : 4 кадра
    Идентификатор кодека : V_MPEG4/ISO/AVC
    Продолжительность : 1 ч. 44 м.
    Битрейт : 5110 Кбит/сек
    Ширина : 1920 пикселей
    Высота : 804 пикселя
    Соотношение сторон : 2, 40: 1
    Режим частоты кадров : Постоянный
    Частота кадров : 24, 000 кадра/сек
    Цветовое пространство : YUV
    Субдискретизация насыщенности : 4: 2: 0
    Битовая глубина : 8 бит
    Тип развёртки : Прогрессивная
    Бит/(Пиксели*Кадры) : 0.138
    Размер потока : 3, 71 Гбайт (82%)
    Библиотека кодирования : x264 core 146 r2555 0c21480
    Настройки программы : cabac=1/ref=3/deblock=1: 0: 0/analyse=0x1: 0x131/me=dia/subme=9/psy=1/psy_rd=1.00: 0.00/mixed_ref=1/me_range=16/chroma_me=1/trellis=1/8x8dct=0/cqm=0/deadzone=21, 11/fast_pskip=1/chroma_qp_offset=-2/threads=3/lookahead_threads=1/sliced_threads=0/nr=0/decimate=1/interlaced=0/bluray_compat=0/constrained_intra=0/bframes=3/b_pyramid=2/b_adapt=1/b_bias=0/direct=1/weightb=1/open_gop=0/weightp=2/keyint=250/keyint_min=25/scenecut=40/intra_refresh=0/rc_lookahead=40/rc=2pass/mbtree=1/bitrate=5110/ratetol=1.0/qcomp=0.60/qpmin=10/qpmax=51/qpstep=4/cplxblur=20.0/qblur=0.5/ip_ratio=1.40/aq=1: 1.00
    Default : Да
    Forced : Нет
    Аудио #1
    Идентификатор : 2
    Формат : AC-3
    Формат/Информация : Audio Coding 3
    Идентификатор кодека : A_AC3
    Продолжительность : 1 ч. 44 м.
    Вид битрейта : Постоянный
    Битрейт : 384 Кбит/сек
    Каналы : 6 каналов
    Расположение каналов : Front: L C R, Side: L R, LFE
    Частота : 48, 0 КГц
    Частота кадров : 31, 250 кадров/сек (1536 SPF)
    Битовая глубина : 16 бит
    Метод сжатия : С потерями
    Размер потока : 286 Мбайт (6%)
    Заголовок : NewStudio
    Язык : Russian
    ServiceKind/String : Complete Main
    Default : Да
    Forced : Нет
    Аудио #2
    Идентификатор : 3
    Формат : AC-3
    Формат/Информация : Audio Coding 3
    Идентификатор кодека : A_AC3
    Продолжительность : 1 ч. 44 м.
    Вид битрейта : Постоянный
    Битрейт : 384 Кбит/сек
    Каналы : 6 каналов
    Расположение каналов : Front: L C R, Side: L R, LFE
    Частота : 48, 0 КГц
    Частота кадров : 31, 250 кадров/сек (1536 SPF)
    Битовая глубина : 16 бит
    Метод сжатия : С потерями
    Размер потока : 286 Мбайт (6%)
    Язык : English
    ServiceKind/String : Complete Main
    Default : Нет
    Forced : Нет
    Аудио #3
    Идентификатор : 4
    Формат : AC-3
    Формат/Информация : Audio Coding 3
    Идентификатор кодека : A_AC3
    Продолжительность : 1 ч. 44 м.
    Вид битрейта : Постоянный
    Битрейт : 384 Кбит/сек
    Каналы : 6 каналов
    Расположение каналов : Front: L C R, Side: L R, LFE
    Частота : 48, 0 КГц
    Частота кадров : 31, 250 кадров/сек (1536 SPF)
    Битовая глубина : 16 бит
    Метод сжатия : С потерями
    Задержка видео : -291 мс.
    Размер потока : 286 Мбайт (6%)
    Заголовок : HDRezka studio
    Язык : Russian
    ServiceKind/String : Complete Main
    Default : Нет
    Forced : Нет


    Онлайн видео Бремя



    Бремя/Cargo (2017) WEB-DL [H.264/1080p-LQ]
    Рейтинг →
     (голосов: 1, оценка 3/5, голосовать можно 1 раз )

    Другие торренты по теме:



      Комментарии (0):

      Информация

      Информация

        Посетители, находящиеся в группе Гости, не могут оставлять комментарии в данной новости.

        ↓ Меню




        ↓ Опрос

        Вы добавили сайт в закладки?
        Да
        Нет


        Top 10 за месяц (Фильмы)