.
Авторизация | Регистрация
Хочешь лучшие торренты? Добавь свой email!
Добавить

Торрент скачать бесплатно

  • support: webmaster@btracker.org
» » Дьявольские врата / Devils Gate (2017) BDRip [MVO] торрент скачать бесплатно


    Дьявольские врата / Devils Gate (2017) BDRip [MVO] торрент скачать бесплатно

    Опубликовал: Админ | Дата: 30-05-2018, 05:00 | .torrent скачали: 0

    Дьявольские врата / Devils Gate (2017) BDRip [MVO]Производство: Канада, США/Mednick Productions
    Жанр: Ужасы, фантастика, триллер
    Режиссер: Клей Стауб

    Актеры
    Майло Вентимилья, Бриджет Риган, Аманда Шулл, Джонатан Фрейкс, Хавьер Ботет, Шон Эшмор, Адам Хертиг, Спенсер Древер, Скотт Джонсон, Уилл Войтович

    Описание

    Агент ФБР расследует таинственное исчезновение матери и сына в небольшом городке Северной Дакоты. Когда ее расследование сосредотачивается на муже и отце пропавших, она узнает страшный секрет, который скрывала эта семья поколениями.

    Возраст: этот продукт не был классифицирован
    Рейтинг MPAA: этот продукт не был классифицирован
    Дата мировой премьеры: 24 апреля 2017
    Дата российской премьеры: неизвестно
    Релиз от: R.G. Resident
    Продолжительность: 01: 34: 15
    Качество видео: BDRip
    Перевод: Профессиональный (многоголосый закадровый) Jaskier
    Субтитры: Отсутствуют
    Видео: XviD, 720x304, 23.976 fps, 1824 Kbps
    Аудио: AC-3, 48.0 KHz, 6 ch, 384 Kbps, CBR
    Общее
    Полное имя : F: Devils.Gate.2017.BDRip.R.G.Resident.avi
    Формат : AVI
    Формат/Информация : Audio Video Interleave
    Размер файла : 1, 46 Гбайт
    Продолжительность : 1 ч. 34 м.
    Общий поток : 2218 Кбит/сек
    Программа кодирования : VirtualDubModRus 1.5.10.2 (build 2542/release)
    Библиотека кодирования : VirtualDubMod build 2542/release
    Видео
    Идентификатор : 0
    Формат : MPEG-4 Visual
    Профиль формата : Advanced Simple@L5
    Настройки формата : BVOP1/Custom Matrix
    Параметр BVOP формата : 1
    Параметр QPel формата : Нет
    Параметр GMC формата : Без точки перехода
    Параметр матрицы формата : Выборочная
    Идентификатор кодека : XVID
    Идентификатор кодека/Подсказка : XviD
    Продолжительность : 1 ч. 34 м.
    Битрейт : 1824 Кбит/сек
    Ширина : 720 пикселей
    Высота : 304 пикселя
    Соотношение сторон : 2, 35: 1
    Частота кадров : 23, 976 (24000/1001) кадра/сек
    Цветовое пространство : YUV
    Субдискретизация насыщенности : 4: 2: 0
    Битовая глубина : 8 бит
    Тип развёртки : Прогрессивная
    Метод сжатия : С потерями
    Бит/(Пиксели*Кадры) : 0.348
    Размер потока : 1, 20 Гбайт (82%)
    Библиотека кодирования : XviD 73
    Аудио
    Идентификатор : 1
    Формат : AC-3
    Формат/Информация : Audio Coding 3
    Идентификатор кодека : 2000
    Продолжительность : 1 ч. 34 м.
    Вид битрейта : Постоянный
    Битрейт : 384 Кбит/сек
    Каналы : 6 каналов
    Расположение каналов : Front: L C R, Side: L R, LFE
    Частота : 48, 0 КГц
    Частота кадров : 31, 250 кадров/сек (1536 SPF)
    Битовая глубина : 16 бит
    Метод сжатия : С потерями
    Размер потока : 259 Мбайт (17%)
    Выравнивание : Разделение по промежуткам
    Продолжительность промежутка : 42 мс. (1, 00 видеокадр)
    Время предзагрузки промежутка : 500 мс.
    ServiceKind/String : Complete Main

    Скриншоты для ознакомления


    Все одноименные релизы в Клубе Время раздачи: с 10: 00 до 23: 00 (до появления первых 3-5 скачавших)


    Онлайн видео Дьявольские врата



    Дьявольские врата/Devils Gate (2017) BDRip [MVO]
    Рейтинг →
     (голосов: 1, оценка 3/5, голосовать можно 1 раз )

    Другие торренты по теме:

  • Дьявольские врата / Devils Gate (2017) WEB-DLRip [H.264 / 720p-LQ] [MVO] [AD]
  • Дьявольские врата / Devils Gate (2017) WEB-DLRip
  • Дьявольские врата / Devils Gate (2017) WEB-DL [H.264 / 1080p-LQ]
  • Дьявольские врата / Devils Gate (2017) WEB-DLRip [H.264]
  • Дьявольские врата / Devils Gate (2017) WEB-DL [1080p] ATV (MVO)
  • Дьявольские врата / Devils Gate (2017) BDRip [H.264 / 1080p-LQ] [MVO]
  • Дьявольские врата / Devils Gate (2017) BDRemux [H.264 / 1080p] [MVO]
  • Дьявольские врата / Devils Gate (2017) BDRip [H.264 / 1080p] [MVO]


    • Комментарии (0):

      Информация

      Информация

        Посетители, находящиеся в группе Гости, не могут оставлять комментарии в данной новости.

        ↓ Меню




        ↓ Опрос

        Вы добавили сайт в закладки?
        Да
        Нет


        Top 10 за месяц (Фильмы)