.
Авторизация | Регистрация
Хочешь лучшие торренты? Добавь свой email!
Добавить

Торрент скачать бесплатно

  • support: webmaster@btracker.org
» » Убивая Еву / Killing Eve (2018) WEB-DLRip (сезон 1, серии 1-7 из 8) NewStudio (обновляемая) торрент скачать бесплатно


    Убивая Еву / Killing Eve (2018) WEB-DLRip (сезон 1, серии 1-7 из 8) NewStudio (обновляемая) торрент скачать бесплатно

    Опубликовал: Админ | Дата: 29-05-2018, 05:00 | .torrent скачали: 0

    Убивая Еву / Killing Eve (2018) WEB-DLRip (сезон 1, серии 1-7 из 8) NewStudio (обновляемая)Производство: США/Sid Gentle Films
    Жанр: триллер
    Режиссер: Джон Ист, Дэймон Томас, Гарри Брэдбир

    Актеры
    Сандра О, Джоди Комер, Фиона Шоу, Ким Бодния, Оуэн МакДоннел, Шон Делани, Кирби Хауэлл-Баптисте, Даррен Бойд, Дэвид Хэйг, Дэвид Бертран и др.

    Описание

    Триллер, в основу которого легли романы Люка Дженнингса, повествует о наёмной убийце-психопатке Вилланелле и охотящейся на неё Еве — сотруднице службы безопасности, давно мечтавшей поменять бумажную работу на оперативную. Так начинается смертельно опасная, полная юмора и экшена игра в кошки-мышки между элегантной, талантливой убийцей и смышлёной оперативницей — обе женщины равно умны и одинаково одержимы друг другом.

    Дата мировой премьеры: 8 апреля 2018
    Продолжительность: ~00: 43: 00 серия
    Качество видео: WEB-DLRip
    Перевод: Многоголосый закадровый, профессиональный -NewStudio
    Субтитры: русские (форсированные)
    Видео: XviD, 720x400 (16: 9), ~1503 kbps
    Аудио 1: MP3, 48, 0 kHz, 2 ch, 128 kbps — русский, многоголосый закадровый
    Аудио 2: MP3, 48, 0 kHz, 2 ch, 128 kbps — английский

    Общее
    Полное имя : D: Убивая Еву (сезон любимого сериала 1) Killing Eve (2018) WEB-DLRip - NewStudioKilling.Eve.S01E01.WEB-DLRip.Rus.Eng.DV.NewStudio.avi
    Формат : AVI
    Формат/Информация : Audio Video Interleave
    Размер файла : 557 Мбайт
    Продолжительность : 43 м. 53 с.
    Общий поток : 1773 Кбит/сек
    Название фильма : Killing.Eve.S01E01.WEB-DLRip.Rus.Eng.DV.NewStudio/NNM-Club
    Программа кодирования : VirtualDubModRus 1.5.10.2 (build 2542/release)
    Библиотека кодирования : VirtualDubMod build 2542/release
    Видео
    Идентификатор : 0
    Формат : MPEG-4 Visual
    Профиль формата : Advanced Simple@L5
    Настройки формата : BVOP2
    Параметр BVOP формата : 2
    Параметр QPel формата : Нет
    Параметр GMC формата : Без точки перехода
    Параметр матрицы формата : Default (H.263)
    Идентификатор кодека : XVID
    Идентификатор кодека/Подсказка : XviD
    Продолжительность : 43 м. 53 с.
    Битрейт : 1503 Кбит/сек
    Ширина : 720 пикселей
    Высота : 400 пикселей
    Соотношение сторон : 16: 9
    Частота кадров : 23, 976 (24000/1001) кадра/сек
    Цветовое пространство : YUV
    Субдискретизация насыщенности : 4: 2: 0
    Битовая глубина : 8 бит
    Тип развёртки : Прогрессивная
    Метод сжатия : С потерями
    Бит/(Пиксели*Кадры) : 0.218
    Размер потока : 472 Мбайт (85%)
    Заголовок : Rip by DriverV/NNM-Club
    Библиотека кодирования : XviD 67
    Аудио #1
    Идентификатор : 1
    Формат : MPEG Audio
    Версия формата : Version 1
    Профиль формата : Layer 3
    Настройки формата : Joint stereo/MS Stereo
    Идентификатор кодека : 55
    Идентификатор кодека/Подсказка : MP3
    Продолжительность : 43 м. 53 с.
    Вид битрейта : Постоянный
    Битрейт : 128 Кбит/сек
    Каналы : 2 канала
    Частота : 48, 0 КГц
    Метод сжатия : С потерями
    Размер потока : 40, 2 Мбайт (7%)
    Выравнивание : Соединение по промежуткам
    Продолжительность промежутка : 42 мс. (1, 00 видеокадр)
    Время предзагрузки промежутка : 504 мс.
    Аудио #2
    Идентификатор : 2
    Формат : MPEG Audio
    Версия формата : Version 1
    Профиль формата : Layer 3
    Настройки формата : Joint stereo/MS Stereo
    Идентификатор кодека : 55
    Идентификатор кодека/Подсказка : MP3
    Продолжительность : 43 м. 53 с.
    Вид битрейта : Постоянный
    Битрейт : 128 Кбит/сек
    Каналы : 2 канала
    Частота : 48, 0 КГц
    Метод сжатия : С потерями
    Размер потока : 40, 2 Мбайт (7%)
    Выравнивание : Соединение по промежуткам
    Продолжительность промежутка : 42 мс. (1, 00 видеокадр)
    Время предзагрузки промежутка : 504 мс.


    Онлайн видео Убивая Еву



    Убивая Еву/Killing Eve (2018) WEB-DLRip (сезон 1, серии 1-7 из 8) NewStudio (обновляемая)
    Рейтинг →
     (голосов: 1, оценка 5/5, голосовать можно 1 раз )

    Другие торренты по теме:

  • Убивая Еву / Killing Eve (2018) WEBRip [H.264 / 1080-LQ] (сезон 1, серии 1 из 10) OMSKBIRD (обновляемая) [AD]


    • Комментарии (0):

      Информация

      Информация

        Посетители, находящиеся в группе Гости, не могут оставлять комментарии в данной новости.

        ↓ Меню




        ↓ Опрос

        Вы добавили сайт в закладки?
        Да
        Нет


        Top 10 за месяц (Фильмы)