.
Авторизация | Регистрация
Хочешь лучшие торренты? Добавь свой email!
Добавить

Торрент скачать бесплатно

  • support: webmaster@btracker.org
» » Мастер не на все руки / Не при делах / Master of None (2017) WEBRip [H.264 / 720p-LQ] (сезон 2, серии 1-10 из 10) OZZ торрент скачать бесплатно


    Мастер не на все руки / Не при делах / Master of None (2017) WEBRip [H.264 / 720p-LQ] (сезон 2, серии 1-10 из 10) OZZ торрент скачать бесплатно

    Опубликовал: Админ | Дата: 29-05-2018, 05:00 | .torrent скачали: 0

    Мастер не на все руки / Не при делах / Master of None (2017) WEBRip [H.264 / 720p-LQ] (сезон 2, серии 1-10 из 10) OZZПроизводство: США/3 Arts Entertainment, Universal Television, Alan Yang Pictures
    Жанр: комедия
    Режиссер: Азиз Ансари, Алан Янг

    Актеры
    Азиз Ансари, Эрик Верхейм, Мелина Матсукас, Алан Янг и др.

    Описание

    Сериал о жизни малоуспешного нью-йоркского актёра индийского происхождения. Тридцатилетний Дев зарабатывает на жизнь небольшими ролями в рекламе и фильмах категории B. Пока его ровесники заводят семьи, он в компании других одиноких друзей пытается интересно проводить время.

    Продолжительность: ~00: 30: 00 серия
    Качество видео: WEBRip
    Перевод: Двуголосый закадровый, профессиональный -OZZ
    Субтитры: русские, английские
    Реклама: присутствуют аудио вставки рекламы
    Внимание! Присутствует ненормативная лексика!
    Видео: AVC/H.264, 1280x536, ~1419 Kbps
    Аудио 1: AC3, 6 ch, 384 Kbps — русский, двуголосый закадровый
    Аудио 2: AC3, 6 ch, 384 Kbps — английский

    Общее
    Уникальный идентификатор : 248478265500669513266459084802189790310 (0xBAEF2C5735ADA6DDA2FE6AFC25D58C66)
    Полное имя : Master.of.None.S02E01.720p.WEBRip.Ozz.mkv
    Формат : Matroska
    Версия формата : Version 4/Version 2
    Размер файла : 483 Мбайт
    Продолжительность : 30 м. 16 с.
    Общий поток : 2231 Кбит/сек
    Дата кодирования : UTC 2017-05-30 13: 25: 55
    Программа кодирования : mkvmerge v6.3.0 (\'You can\'t stop me!\') built on Jun 28 2013 20: 09: 41
    Библиотека кодирования : libebml v1.3.0 + libmatroska v1.4.0
    IsTruncated : Yes
    Видео
    Идентификатор : 1
    Формат : AVC
    Формат/Информация : Advanced Video Codec
    Профиль формата : High@L4.1
    Настройки формата : CABAC/5 Ref Frames
    Параметр CABAC формата : Да
    Параметр RefFrames формата : 5 кадров
    Идентификатор кодека : V_MPEG4/ISO/AVC
    Продолжительность : 30 м. 16 с.
    Битрейт : 1419 Кбит/сек
    Ширина : 1280 пикселей
    Высота : 536 пикселей
    Соотношение сторон : 2, 40: 1
    Режим частоты кадров : Постоянный
    Частота кадров : 23, 976 (24000/1001) кадра/сек
    Цветовое пространство : YUV
    Субдискретизация насыщенности : 4: 2: 0
    Битовая глубина : 8 бит
    Тип развёртки : Прогрессивная
    Бит/(Пиксели*Кадры) : 0.086
    Размер потока : 307 Мбайт (64%)
    Библиотека кодирования : x264 core 148 r2762 90a61ec
    Настройки программы : cabac=1/ref=5/deblock=1: -3: -3/analyse=0x3: 0x113/me=hex/subme=8/psy=1/psy_rd=1.00: 0.15/mixed_ref=1/me_range=16/chroma_me=1/trellis=2/8x8dct=1/cqm=0/deadzone=21, 11/fast_pskip=1/chroma_qp_offset=-3/threads=6/lookahead_threads=1/sliced_threads=0/nr=0/decimate=1/interlaced=0/bluray_compat=0/constrained_intra=0/bframes=3/b_pyramid=2/b_adapt=1/b_bias=0/direct=3/weightb=1/open_gop=0/weightp=2/keyint=250/keyint_min=23/scenecut=40/intra_refresh=0/rc_lookahead=50/rc=crf/mbtree=1/crf=18.0/qcomp=0.60/qpmin=0/qpmax=69/qpstep=4/ip_ratio=1.40/aq=1: 1.00
    Default : Да
    Forced : Нет
    Аудио #1
    Идентификатор : 2
    Формат : AC-3
    Формат/Информация : Audio Coding 3
    Идентификатор кодека : A_AC3
    Продолжительность : 30 м. 16 с.
    Вид битрейта : Постоянный
    Битрейт : 384 Кбит/сек
    Каналы : 6 каналов
    Расположение каналов : Front: L C R, Side: L R, LFE
    Частота : 48, 0 КГц
    Частота кадров : 31, 250 кадров/сек (1536 SPF)
    Битовая глубина : 16 бит
    Метод сжатия : С потерями
    Размер потока : 83, 1 Мбайт (17%)
    Заголовок : DVO Ozz-tv
    Язык : Russian
    ServiceKind/String : Complete Main
    Default : Да
    Forced : Нет
    Аудио #2
    Идентификатор : 3
    Формат : AC-3
    Формат/Информация : Audio Coding 3
    Идентификатор кодека : A_AC3
    Продолжительность : 30 м. 16 с.
    Вид битрейта : Постоянный
    Битрейт : 384 Кбит/сек
    Каналы : 6 каналов
    Расположение каналов : Front: L C R, Side: L R, LFE
    Частота : 48, 0 КГц
    Частота кадров : 31, 250 кадров/сек (1536 SPF)
    Битовая глубина : 16 бит
    Метод сжатия : С потерями
    Размер потока : 83, 1 Мбайт (17%)
    Язык : English
    ServiceKind/String : Complete Main
    Default : Нет
    Forced : Нет
    Текст #1
    Идентификатор : 4
    Формат : UTF-8
    Идентификатор кодека : S_TEXT/UTF8
    Идентификатор кодека/Информация : UTF-8 Plain Text
    Заголовок : Trotteville
    Язык : Russian
    Default : Нет
    Forced : Нет
    Текст #2
    Идентификатор : 5
    Формат : UTF-8
    Идентификатор кодека : S_TEXT/UTF8
    Идентификатор кодека/Информация : UTF-8 Plain Text
    Язык : English
    Default : Нет
    Forced : Нет


    Онлайн видео Мастер не на все руки



    Мастер не на все руки/Не при делах/Master of None (2017) WEBRip [H.264/720p-LQ] (сезон 2, серии 1-10 из 10) OZZ
    Рейтинг →
     (голосов: 1, оценка 3/5, голосовать можно 1 раз )

    Другие торренты по теме:

  • Джек - мастер на все руки / Jack of all trades (2000) DVDRip [сезон 1, серии 1-14 из 14] скачать через торрент бесплатно
  • Мастер не на все руки / Не при делах / Master of None (2015) WEBRip [H.264 / 720p-LQ] (сезон 1, серии 1-5 из 10) (Ozz) (обновляемая) скачать через торрент бесплатно
  • Альберт Джексон, Дэвид Дэй | Мастер золотые руки [2-е издание] (2015) [PDF]
  • Серия книг | Мастер Золотые руки [12 книг] (2006-2017) [PDF, DJVU, FB2]


    • Комментарии (0):

      Информация

      Информация

        Посетители, находящиеся в группе Гости, не могут оставлять комментарии в данной новости.

        ↓ Меню




        ↓ Опрос

        Вы добавили сайт в закладки?
        Да
        Нет


        Top 10 за месяц (Фильмы)