.
Авторизация | Регистрация
Хочешь лучшие торренты? Добавь свой email!
Добавить

Торрент скачать бесплатно

  • support: webmaster@btracker.org
» » Путешествие к центру души (2018) WEBRip (серии 1-16 из 16) торрент скачать бесплатно


    Путешествие к центру души (2018) WEBRip (серии 1-16 из 16) торрент скачать бесплатно

    Опубликовал: Админ | Дата: 29-05-2018, 05:00 | .torrent скачали: 0

    Путешествие к центру души (2018) WEBRip (серии 1-16 из 16)Производство: Украина/Star Media
    Жанр: мелодрама
    Режиссер: Дмитрий Матов

    Актеры
    Мария Баева, Анастасия Иванова, Александр Робак, Екатерина Семёнова, Андрей Аверков, Игорь Скрипко, Артём Позняк, Даниил Мирешкин, Константин Корецкий и др.

    Описание

    Сага о судьбах двух девушек – Риты и Веры, ставших ближайшими подругами в переломный исторический момент распада СССР. История развивается на протяжении двадцати лет. Из-за любви к одному мужчине – Максиму, Рита и Вера из лучших подруг превращаются в смертельно опасных друг для друга врагов...

    Дата мировой премьеры: 15 мая 2018 (ТРК Украина)
    Продолжительность: ~ 00: 45: 00 серия
    Качество видео: WEBRip
    Язык озвучки: русский
    Видео: Xvid, 720x400 (16: 9), ~1493 Kbps
    Аудио: AC3, 2 ch, 192 Kbps

    Общее
    Полное имя : D: Мои фильмыPuteshestvie_k_centru_dushi_1-16iz16_2018_XviD_WEBRipPuteshestvie_k_centru_dushi_01.avi
    Формат : AVI
    Формат/Информация : Audio Video Interleave
    Размер файла : 555 Мбайт
    Продолжительность : 45 м. 46 с.
    Общий поток : 1694 Кбит/сек
    Программа кодирования : VirtualDubMod 1.5.10.3www.virtualdub-fr.org|| (build 2550/release)
    Библиотека кодирования : VirtualDub2 build 41768/release
    Видео
    Идентификатор : 0
    Формат : MPEG-4 Visual
    Профиль формата : Advanced Simple@L5
    Настройки формата : BVOP2
    Параметр BVOP формата : 2
    Параметр QPel формата : Нет
    Параметр GMC формата : Без точки перехода
    Параметр матрицы формата : Default (H.263)
    Идентификатор кодека : XVID
    Идентификатор кодека/Подсказка : XviD
    Продолжительность : 45 м. 46 с.
    Битрейт : 1493 Кбит/сек
    Ширина : 720 пикселей
    Высота : 400 пикселей
    Соотношение сторон : 16: 9
    Частота кадров : 25, 000 кадров/сек
    Цветовое пространство : YUV
    Субдискретизация насыщенности : 4: 2: 0
    Битовая глубина : 8 бит
    Тип развёртки : Прогрессивная
    Метод сжатия : С потерями
    Бит/(Пиксели*Кадры) : 0.207
    Размер потока : 489 Мбайт (88%)
    Библиотека кодирования : XviD 67
    Аудио
    Идентификатор : 1
    Формат : AC-3
    Формат/Информация : Audio Coding 3
    Идентификатор кодека : 2000
    Продолжительность : 45 м. 46 с.
    Вид битрейта : Постоянный
    Битрейт : 192 Кбит/сек
    Каналы : 2 канала
    Расположение каналов : Front: L R
    Частота : 48, 0 КГц
    Частота кадров : 31, 250 кадров/сек (1536 SPF)
    Битовая глубина : 16 бит
    Метод сжатия : С потерями
    Размер потока : 62, 9 Мбайт (11%)
    Выравнивание : Соединение по промежуткам
    Продолжительность промежутка : 40 мс. (1, 00 видеокадр)
    Время предзагрузки промежутка : 512 мс.
    ServiceKind/String : Complete Main

    Скриншоты для ознакомления



    Все одноименные релизы в Клубе
    Время раздачи: с 07: 00 до 23: 00 (до появления первых 3-5 скачавших)


    Онлайн видео Путешествие к центру души (2018) WEBRip (серии 1



    Путешествие к центру души (2018) WEBRip (серии 1-16 из 16)
    Рейтинг →
     (голосов: 1, оценка 3/5, голосовать можно 1 раз )

    Другие торренты по теме:

  • Путешествие к центру Земли / At the Earths Core (1976) BDRip скачать через торрент бесплатно
  • Путешествие к Центру Земли / Journey to the Center of the Earth (2008) BDRip [H.264 / 1080p-LQ]
  • Валдис Пельш. Путешествие к центру земли. (2016) HDTVRip [H.264 / 1080p-LQ]
  • Валдис Пельш. Путешествие к центру земли. (2016) HDTVRip [H.264]
  • Валдис Пельш. Путешествие к центру земли. (2016) HDTVRip [H.264 / 720p-LQ]
  • Путешествие к центру души (2018) WEBRip [H.264 / 720p-LQ] (серии 1-6 из 16) (обновляемая)


    • Комментарии (0):

      Информация

      Информация

        Посетители, находящиеся в группе Гости, не могут оставлять комментарии в данной новости.

        ↓ Меню




        ↓ Опрос

        Вы добавили сайт в закладки?
        Да
        Нет


        Top 10 за месяц (Фильмы)