.
Авторизация | Регистрация
Хочешь лучшие торренты? Добавь свой email!
Добавить

Торрент скачать бесплатно

  • support: webmaster@btracker.org
» » Заколдованный участок (2006) WEBRip [H.264] (серии 1-10 из 10) торрент скачать бесплатно


    Заколдованный участок (2006) WEBRip [H.264] (серии 1-10 из 10) торрент скачать бесплатно

    Опубликовал: Админ | Дата: 29-05-2018, 05:00 | .torrent скачали: 1

    Заколдованный участок (2006) WEBRip [H.264] (серии 1-10 из 10)Производство: Россия/Про-Синема продакшн
    Жанр: мелодрама, комедия
    Режиссер: Александр Баранов

    Актеры
    Леонид Ярмольник, Владимир Меньшов, Роман Мадянов, Юлия Рутберг, Владимир Толоконников, Андрей Краско, Надежда Маркина, Алексей Гуськов, Нина Русланова, Татьяна Догилева, Павел Деревянко и др.

    Описание

    Совсем худо стало в Анисовке: народ выпивает, ленится, и с печалью смотрит в будущее: селу грозит если не снос, то блокада по причине строящегося моста. Начальники решают использовать нетрадиционное средство: позвать экстрасенса — и пусть он всех вылечит от пьянства, пессимизма и отсутствия трудового задора. Экстрасенс начинает сеанс, все засыпают, и он сам засыпает, вернее, падает в обморок. Пробудившись, Анисовка становится не такой как раньше, но и с экстрасенсом что-то случилось. Вот они и разбираются, кто кого заколдовал и как будет расколдовывать. Что приводит к череде удивительных, невероятных, но вполне реальных событий.

    Возраст: 12+ (зрителям, достигшим 12 лет)
    Релиз от: Алехаndr
    Продолжительность: ~00: 52: 00 серия
    Качество видео: WEBRip
    Видео: AVC/H.264, 942x568, ~1815 Kbps
    Аудио: AC3, 2 ch, 192 Kbps

    Общее
    Уникальный идентификатор : 62026995894593913249533983406917731875 (0x2EA9F70212A25372E7D48BFFFF2CC623)
    Полное имя : D: Заколдованный участок (2006).by.АлехаndrСерия 01.by.Алехаndr.mkv
    Формат : Matroska
    Версия формата : Version 4/Version 2
    Размер файла : 725 Мбайт
    Продолжительность : 50 м. 28 с.
    Общий поток : 2009 Кбит/сек
    Дата кодирования : UTC 2018-05-28 09: 49: 54
    Программа кодирования : mkvmerge v23.0.0 (\'The Bride Said No\') 64-bit
    Библиотека кодирования : libebml v1.3.6 + libmatroska v1.4.9/Lavf57.71.100
    Видео
    Идентификатор : 1
    Формат : AVC
    Формат/Информация : Advanced Video Codec
    Профиль формата : Main@L3.1
    Настройки формата : CABAC/1 Ref Frames
    Параметр CABAC формата : Да
    Параметр RefFrames формата : 1 кадр
    Идентификатор кодека : V_MPEG4/ISO/AVC
    Продолжительность : 50 м. 28 с.
    Битрейт : 1814 Кбит/сек
    Ширина : 942 пикселя
    Высота : 568 пикселей
    Соотношение сторон : 5: 3
    Режим частоты кадров : Постоянный
    Частота кадров : 29, 970 (30000/1001) кадров/сек
    Цветовое пространство : YUV
    Субдискретизация насыщенности : 4: 2: 0
    Битовая глубина : 8 бит
    Тип развёртки : Прогрессивная
    Бит/(Пиксели*Кадры) : 0.113
    Размер потока : 655 Мбайт (90%)
    Default : Да
    Forced : Нет
    Аудио
    Идентификатор : 2
    Формат : AC-3
    Формат/Информация : Audio Coding 3
    Идентификатор кодека : A_AC3
    Продолжительность : 50 м. 28 с.
    Вид битрейта : Постоянный
    Битрейт : 192 Кбит/сек
    Каналы : 2 канала
    Расположение каналов : Front: L R
    Частота : 48, 0 КГц
    Частота кадров : 31, 250 кадров/сек (1536 SPF)
    Битовая глубина : 16 бит
    Метод сжатия : С потерями
    Размер потока : 69, 3 Мбайт (10%)
    ServiceKind/String : Complete Main
    Default : Да
    Forced : Нет


    Онлайн видео Заколдованный участок (2006) WEBRip [H.264] (серии 1



    Заколдованный участок (2006) WEBRip [H.264] (серии 1-10 из 10)
    Рейтинг →
     (голосов: 1, оценка 4/5, голосовать можно 1 раз )

    Другие торренты по теме:

  • Заколдованный дом / La casa stregata (1982) DVDRip [H.264] [VO]
  • Мэри Стюарт | Заколдованный конь (2014) [MP3]


    • Комментарии (0):

      Информация

      Информация

        Посетители, находящиеся в группе Гости, не могут оставлять комментарии в данной новости.

        ↓ Меню




        ↓ Опрос

        Вы добавили сайт в закладки?
        Да
        Нет


        Top 10 за месяц (Фильмы)