.
Авторизация | Регистрация
Хочешь лучшие торренты? Добавь свой email!
Добавить

Торрент скачать бесплатно

  • support: webmaster@btracker.org
» » Гурзуф (2018) WEB-DL [H.264 / 1080p-LQ] (серии 1-2 из 8) (обновляемая) торрент скачать бесплатно


    Гурзуф (2018) WEB-DL [H.264 / 1080p-LQ] (серии 1-2 из 8) (обновляемая) торрент скачать бесплатно

    Опубликовал: Админ | Дата: 29-05-2018, 05:00 | .torrent скачали: 2

    Гурзуф (2018) WEB-DL [H.264 / 1080p-LQ] (серии 1-2 из 8) (обновляемая)Производство: Россия/Epic Media
    Жанр: детектив, история
    Режиссер: Дмитрий Константинов

    Актеры
    Пётр Фёдоров, Евгений Антропов, Дарья Урсуляк, Павел Чинарёв, Мария Смольникова, Виталия Корниенко, Александр Бухаров, Тимур Бадалбейли, Константин Чепурин, Елена Нестерова

    Описание

    Июнь 1965 года. Порой жёстко, в обход закона, порой договариваясь с преступниками, Родион Стоцкий за три года работы начальником милиции превратил Гурзуф в самое спокойное место Южного берега Крыма. Здесь даже пляжные мошенники предпочитают не работать. Но в начале нового курортного сезон любимого сериалаа за пару дней происходит сразу несколько преступлений: расстреливают блатных в такси; грабят грузовик, который везёт зарплату для работников Артека; совершают разбойное нападение на подпольное игорное заведение. Стоцкий понимает, что все эти преступления связаны, и он должен найти преступников в самые кратчайшие сроки. В расследовании ему помогает старый знакомый Тарас Зайцев, который перебрался с семьёй в Крым следом за Стоцким.

    Дата российской премьеры: 28 мая 2018
    Релиз от: Алехаndr
    Продолжительность: ~00: 50: 00 серия
    Качество видео: WEB-DL
    Видео: AVC/H.264, 1920x1080 (16: 9), ~2885 Kbps
    Аудио: AC3, 2 ch, 192 Kbps

    Общее
    Уникальный идентификатор : 113982649871639709893693112311941892437 (0x55C04285B738376D0A236D50A6B30955)
    Полное имя : D: Гурзуф (2018).by.АлехаndrСерия 1.by.Алехаndr.mkv
    Формат : Matroska
    Версия формата : Version 4/Version 2
    Размер файла : 1, 05 Гбайт
    Продолжительность : 47 м. 49 с.
    Общий поток : 3140 Кбит/сек
    Программа кодирования : Lavf57.71.100
    Библиотека кодирования : Lavf57.71.100
    ErrorDetectionType : Per level 1
    Видео
    Идентификатор : 1
    Формат : AVC
    Формат/Информация : Advanced Video Codec
    Профиль формата : High@L4
    Настройки формата : CABAC/2 Ref Frames
    Параметр CABAC формата : Да
    Параметр RefFrames формата : 2 кадра
    Идентификатор кодека : V_MPEG4/ISO/AVC
    Продолжительность : 47 м. 48 с.
    Битрейт : 2885 Кбит/сек
    Ширина : 1920 пикселей
    Высота : 1080 пикселей
    Соотношение сторон : 16: 9
    Режим частоты кадров : Постоянный
    Частота кадров : 25, 000 кадров/сек
    Цветовое пространство : YUV
    Субдискретизация насыщенности : 4: 2: 0
    Битовая глубина : 8 бит
    Тип развёртки : Прогрессивная
    Бит/(Пиксели*Кадры) : 0.056
    Размер потока : 987 Мбайт (92%)
    Default : Да
    Forced : Нет
    Цветовой диапазон : Limited
    Основные цвета : BT.709
    Характеристики трансфера : BT.709
    Коэффициенты матрицы : BT.709
    Аудио
    Идентификатор : 2
    Формат : AC-3
    Формат/Информация : Audio Coding 3
    Идентификатор кодека : A_AC3
    Продолжительность : 47 м. 49 с.
    Вид битрейта : Постоянный
    Битрейт : 192 Кбит/сек
    Каналы : 2 канала
    Расположение каналов : Front: L R
    Частота : 48, 0 КГц
    Частота кадров : 31, 250 кадров/сек (1536 SPF)
    Битовая глубина : 16 бит
    Метод сжатия : С потерями
    Размер потока : 65, 7 Мбайт (6%)
    ServiceKind/String : Complete Main
    Default : Да
    Forced : Нет


    Онлайн видео Гурзуф (2018) WEB-DL [H.264



    Гурзуф (2018) WEB-DL [H.264/1080p-LQ] (серии 1-2 из 8) (обновляемая)
    Рейтинг →
     (голосов: 1, оценка 3/5, голосовать можно 1 раз )

    Другие торренты по теме:

  • Гурзуф (2018) WEBRip (серии 1-6 из 8) (обновляемая)
  • Гурзуф (2018) HDTVRip [H.264] (серии 1-8 из 8)


    • Комментарии (0):

      Информация

      Информация

        Посетители, находящиеся в группе Гости, не могут оставлять комментарии в данной новости.

        ↓ Меню




        ↓ Опрос

        Вы добавили сайт в закладки?
        Да
        Нет


        Top 10 за месяц (Фильмы)