.
Авторизация | Регистрация
Хочешь лучшие торренты? Добавь свой email!
Добавить

Торрент скачать бесплатно

  • support: webmaster@btracker.org
» » Мельник (2018) WEB-DL [H.264 / 1080p-LQ] (серии 1-2 из 16) (обновляемая) торрент скачать бесплатно


    Мельник (2018) WEB-DL [H.264 / 1080p-LQ] (серии 1-2 из 16) (обновляемая) торрент скачать бесплатно

    Опубликовал: Админ | Дата: 29-05-2018, 05:00 | .torrent скачали: 1

    Мельник (2018) WEB-DL [H.264 / 1080p-LQ] (серии 1-2 из 16) (обновляемая)Производство: Россия/Компания Платформа кино, Киностудия МИМ по заказу телеканала НТВ
    Жанр: детектив
    Режиссер: Станислав Мареев

    Актеры
    Сергей Шнырев, Сергей Паршин, Александр Константинов, Роман Грибков, Игорь Черневич, Наталья Высочанская, Вячеслав Гасай, Юрий Ковалев, Антон Чернов, Сергей Воробьёв

    Описание

    После тяжелого ранения, бывший майор Роман Мельник дослуживает выслугу до пенсии в конвойных войсках ФСИН в должности начальника выездного караула. В одну из смен он сопровождает партию особо опасных преступников в специальном вагоне поезда. Остановившись на одной из станций, Мельник по служебной необходимости отлучается. В это время в вагон проникает неизвестный и, нейтрализовав конвой, освобождает 13 заключенных. Руководство ФСб просит Мельника возглавить группу по поимке сбежавших преступников, мотивируя это тем, что расследование не должно получить огласки в прессе, так как может вызвать панику среди населения.

    Возраст: 16+ (зрителям, достигшим 16 лет)
    Дата российской премьеры: 28 мая 2018
    Релиз от: Алехаndr
    Продолжительность: ~00: 48: 00 серия
    Качество видео: WEB-DL
    Видео: AVC/H.264, 1920x1080 (16: 9), ~3020 Kbps
    Аудио: AC3, 2 ch, 192 Kbps

    Общее
    Уникальный идентификатор : 119838980548088572298611597517581257470 (0x5A2825EAD09A45FFE0D073EAECD90AFE)
    Полное имя : D: Мельник (2018).by.АлехаndrСерия 01.by.Алехаndr.mkv
    Формат : Matroska
    Версия формата : Version 4/Version 2
    Размер файла : 1, 07 Гбайт
    Продолжительность : 46 м. 33 с.
    Общий поток : 3276 Кбит/сек
    Программа кодирования : Lavf57.71.100
    Библиотека кодирования : Lavf57.71.100
    ErrorDetectionType : Per level 1
    Видео
    Идентификатор : 1
    Формат : AVC
    Формат/Информация : Advanced Video Codec
    Профиль формата : High@L4
    Настройки формата : CABAC/2 Ref Frames
    Параметр CABAC формата : Да
    Параметр RefFrames формата : 2 кадра
    Идентификатор кодека : V_MPEG4/ISO/AVC
    Продолжительность : 46 м. 33 с.
    Битрейт : 3018 Кбит/сек
    Ширина : 1920 пикселей
    Высота : 1080 пикселей
    Соотношение сторон : 16: 9
    Режим частоты кадров : Постоянный
    Частота кадров : 25, 000 кадров/сек
    Цветовое пространство : YUV
    Субдискретизация насыщенности : 4: 2: 0
    Битовая глубина : 8 бит
    Тип развёртки : Прогрессивная
    Бит/(Пиксели*Кадры) : 0.058
    Размер потока : 1005 Мбайт (92%)
    Default : Да
    Forced : Нет
    Цветовой диапазон : Limited
    Основные цвета : BT.709
    Характеристики трансфера : BT.709
    Коэффициенты матрицы : BT.709
    Аудио
    Идентификатор : 2
    Формат : AC-3
    Формат/Информация : Audio Coding 3
    Идентификатор кодека : A_AC3
    Продолжительность : 46 м. 33 с.
    Вид битрейта : Постоянный
    Битрейт : 192 Кбит/сек
    Каналы : 2 канала
    Расположение каналов : Front: L R
    Частота : 48, 0 КГц
    Частота кадров : 31, 250 кадров/сек (1536 SPF)
    Битовая глубина : 16 бит
    Метод сжатия : С потерями
    Размер потока : 63, 9 Мбайт (6%)
    ServiceKind/String : Complete Main
    Default : Да
    Forced : Нет


    Онлайн видео Мельник (2018) WEB-DL [H.264



    Мельник (2018) WEB-DL [H.264/1080p-LQ] (серии 1-2 из 16) (обновляемая)
    Рейтинг →
     (голосов: 1, оценка 4/5, голосовать можно 1 раз )

    Другие торренты по теме:

  • Сергей Мельник | Цикл "Барон Ульрих" [8 книг] (2014-2015) [MP3] скачать через торрент бесплатно
  • Жорж Санд | Мельник из Анжибо (2016) [MP3]
  • Мельник (2017) WEB-DLRip [H.264] (серии 1-8 из 16) (обновляемая)
  • Мельник (2018) WEBRip (серии 1-16 из 16)


    • Комментарии (0):

      Информация

      Информация

        Посетители, находящиеся в группе Гости, не могут оставлять комментарии в данной новости.

        ↓ Меню




        ↓ Опрос

        Вы добавили сайт в закладки?
        Да
        Нет


        Top 10 за месяц (Фильмы)