.
Авторизация | Регистрация
Хочешь лучшие торренты? Добавь свой email!
Добавить

Торрент скачать бесплатно

  • support: webmaster@btracker.org
» » Горы и камни / The Ottoman Lieutenant (2017) BDRip торрент скачать бесплатно


    Горы и камни / The Ottoman Lieutenant (2017) BDRip торрент скачать бесплатно

    Опубликовал: Админ | Дата: 29-05-2018, 05:00 | .torrent скачали: 1

    Горы и камни / The Ottoman Lieutenant (2017) BDRipПроизводство: Турция, США/Eastern Sunrise Films, Y Production
    Жанр: Драма, Военный
    Режиссер: Джозеф Рубин

    Актеры
    Михил Хаушман, Гера Хилмарсдоттир, Джош Хартнетт, Бен Кингсли, Халук Бильгинер, Аффиф Бен Бадра, Пол Баррет, Джесика Тернер, Питер Хоскин, Сельчук Ёнтем, Элишка Слански, Хасан Сай

    Описание

    История любви между идеалистичной медсестрой-американкой и турецким офицером на фоне Первой мировой войны.

    Возраст: 16+ (зрителям, достигшим 16 лет)
    Рейтинг MPAA: R (лицам до 17 лет обязательно присутствие взрослого)
    Релиз от: R.G. Resident
    Продолжительность: 01: 50: 35
    Качество видео: BDRip
    Перевод: Дублированный (студия Пифагор)
    Субтитры: Отсутствуют
    Видео: XviD, 720x304, ~1496 kbps, 23, 976 fps
    Аудио: AC3, 6 ch, 384 kbps - Русский
    Общее
    Полное имя : C: The.Ottoman.Lieutenant.2017.BDRip.R.G.Resident.avi
    Формат : AVI
    Формат/Информация : Audio Video Interleave
    Размер файла : 1, 46 Гбайт
    Продолжительность : 1 ч. 50 м.
    Общий поток : 1889 Кбит/сек
    Программа кодирования : VirtualDubModRus 1.5.10.2 (build 2542/release)
    Библиотека кодирования : VirtualDubMod build 2542/release
    Видео
    Идентификатор : 0
    Формат : MPEG-4 Visual
    Профиль формата : Advanced Simple@L5
    Настройки формата : BVOP1/Custom Matrix
    Параметр BVOP формата : 1
    Параметр QPel формата : Нет
    Параметр GMC формата : Без точки перехода
    Параметр матрицы формата : Выборочная
    Идентификатор кодека : XVID
    Идентификатор кодека/Подсказка : XviD
    Продолжительность : 1 ч. 50 м.
    Битрейт : 1496 Кбит/сек
    Ширина : 720 пикселей
    Высота : 304 пикселя
    Соотношение сторон : 2, 35: 1
    Частота кадров : 23, 976 (24000/1001) кадра/сек
    Цветовое пространство : YUV
    Субдискретизация насыщенности : 4: 2: 0
    Битовая глубина : 8 бит
    Тип развёртки : Прогрессивная
    Метод сжатия : С потерями
    Бит/(Пиксели*Кадры) : 0.285
    Размер потока : 1, 16 Гбайт (79%)
    Библиотека кодирования : XviD 73
    Аудио
    Идентификатор : 1
    Формат : AC-3
    Формат/Информация : Audio Coding 3
    Идентификатор кодека : 2000
    Продолжительность : 1 ч. 50 м.
    Вид битрейта : Постоянный
    Битрейт : 384 Кбит/сек
    Каналы : 6 каналов
    Расположение каналов : Front: L C R, Side: L R, LFE
    Частота : 48, 0 КГц
    Частота кадров : 31, 250 кадров/сек (1536 SPF)
    Битовая глубина : 16 бит
    Метод сжатия : С потерями
    Размер потока : 304 Мбайт (20%)
    Выравнивание : Разделение по промежуткам
    Продолжительность промежутка : 42 мс. (1, 00 видеокадр)
    Время предзагрузки промежутка : 500 мс.
    ServiceKind/String : Complete Main

    Скриншоты для ознакомления


    Все одноименные релизы в Клубе
    Время раздачи: c 10: 00 до 23: 00 (до появления первых 3-5 скачавших)


    Онлайн видео Горы и камни



    Горы и камни/The Ottoman Lieutenant (2017) BDRip
    Рейтинг →
     (голосов: 1, оценка 3/5, голосовать можно 1 раз )

    Другие торренты по теме:

  • Горы и камни / The Ottoman Lieutenant (2017) BDRip [H.264 / 1080p] [EN / EN Sub]
  • Горы и камни / The Ottoman Lieutenant (2017) BDRip [H.264 / 720p] [MVO] [AD]
  • Горы и камни / The Ottoman Lieutenant (2017) HDRip [MVO] [AD]
  • Горы и камни / The Ottoman Lieutenant (2017) BDRemux [H.264 / 1080p] [EN / EN, Fr, Sp Sub]
  • Горы и камни / The Ottoman Lieutenant (2017) BDRip [H.264 / 1080p]
  • Горы и камни / The Ottoman Lieutenant (2017) BDRemux [H.264 / 1080p]
  • Горы и камни / The Ottoman Lieutenant (2017) BDRip [H.264]
  • Горы и камни / The Ottoman Lieutenant (2017) BDRip [1080p] ATV


    • Комментарии (0):

      Информация

      Информация

        Посетители, находящиеся в группе Гости, не могут оставлять комментарии в данной новости.

        ↓ Меню




        ↓ Опрос

        Вы добавили сайт в закладки?
        Да
        Нет


        Top 10 за месяц (Фильмы)