.
Авторизация | Регистрация
Хочешь лучшие торренты? Добавь свой email!
Добавить

Торрент скачать бесплатно

  • support: webmaster@btracker.org
» » А ну-ка, девочка, разденься! / Geh, zieh dein Dirndl aus (1973) DVDRip [H.264] торрент скачать бесплатно


    А ну-ка, девочка, разденься! / Geh, zieh dein Dirndl aus (1973) DVDRip [H.264] торрент скачать бесплатно

    Опубликовал: Админ | Дата: 29-05-2018, 05:00 | .torrent скачали: 3

    А ну-ка, девочка, разденься! / Geh, zieh dein Dirndl aus (1973) DVDRip [H.264]Производство: Германия (ФРГ)/ Lisa-Film GmbH
    Жанр: Комедия, Эротика
    Режиссер: Зиги Ротемунд

    Актеры
    Элизабет Фолькманн, Александр Грилль, Мари Экорре, Ринальдо Таламонти, Рауль Ретцер, Доротея Рау, Майя Хоппе, Элизабет Фельхнер, Юрген Шиллинг, Юлиане Ром-Зок

    Описание

    На тирольской ферме Зонхоф жизнь идет своим чередом: радушные юные крестьянки ухаживают за хозяйством, а их самих обхаживают удалые местные ловеласы. Пока новая хозяйка, наивная городская фифа, любуется петушками да курочками, ее сосед Флориан хочет завладеть фермой и для этого у него есть коварный романтический план!
    Ему мог бы помочь знойный итальянец Пармезано, случайно оказавшийся на ферме, но у этого бабника нешуточная проблема — сейчас он должен притворяться геем, а у таких игр бывают рискованные последствия…

    Возраст: 18+ (зрителям, достигшим 18 лет. запрещено для детей)
    Релиз от: Охрана (NNMCLUB)
    Продолжительность: 01: 19: 44
    Качество видео: DVDRip
    Перевод: Профессиональный (многоголосый закадровый), одноголоый закадровый
    Субтитры: Отсутствуют
    Видео: AVC/H.264, 720x512, ~1887 Kbps
    Аудио 1: Русский, AC3, 2 ch, 192 Kbps, 48.0 kHz (MVO)
    Аудио 2: Русский, AC3, 2 ch, 192 Kbps, 48.0 kHz (VO, женский с VHS)
    Аудио 3: Немецкий, AC3, 2 ch, 192 Kbps, 48.0 kHz (Оригинал)

    Общее
    Уникальный идентификатор : 200728869380169188901032516201295917025 (0x9702F959A6D507BE9150914E9D242FE1)
    Полное имя : F: DownloadsА ну-ка, девочка, разденься! 1973. NNMCLUB.mkv
    Формат : Matroska
    Версия формата : Version 4/Version 2
    Размер файла : 1, 37 Гбайт
    Продолжительность : 1 ч. 19 м.
    Общий поток : 2466 Кбит/сек
    Дата кодирования : UTC 2018-05-25 22: 54: 26
    Программа кодирования : mkvmerge v7.9.0 (\'Birds\') 64bit
    Библиотека кодирования : libebml v1.3.1 + libmatroska v1.4.2
    Видео
    Идентификатор : 1
    Формат : AVC
    Формат/Информация : Advanced Video Codec
    Профиль формата : High@L4.1
    Настройки формата : CABAC/12 Ref Frames
    Параметр CABAC формата : Да
    Параметр RefFrames формата : 12 кадров
    Идентификатор кодека : V_MPEG4/ISO/AVC
    Продолжительность : 1 ч. 19 м.
    Битрейт : 1887 Кбит/сек
    Ширина : 720 пикселей
    Высота : 512 пикселей
    Соотношение сторон : 1, 406
    Режим частоты кадров : Постоянный
    Частота кадров : 25, 000 кадров/сек
    Цветовое пространство : YUV
    Субдискретизация насыщенности : 4: 2: 0
    Битовая глубина : 8 бит
    Тип развёртки : Прогрессивная
    Бит/(Пиксели*Кадры) : 0.205
    Размер потока : 1, 05 Гбайт (77%)
    Заголовок : Geh, zieh dein Dirndl aus
    Библиотека кодирования : x264 core 146 r2538 121396c
    Настройки программы : cabac=1/ref=12/deblock=1: -1: -1/analyse=0x3: 0x113/me=umh/subme=10/psy=1/psy_rd=1.00: 0.10/mixed_ref=1/me_range=32/chroma_me=1/trellis=2/8x8dct=1/cqm=0/deadzone=21, 11/fast_pskip=0/chroma_qp_offset=-3/threads=6/lookahead_threads=1/sliced_threads=0/nr=0/decimate=0/interlaced=0/bluray_compat=0/constrained_intra=0/bframes=7/b_pyramid=2/b_adapt=2/b_bias=0/direct=3/weightb=1/open_gop=0/weightp=2/keyint=250/keyint_min=25/scenecut=40/intra_refresh=0/rc_lookahead=60/rc=2pass/mbtree=1/bitrate=1887/ratetol=1.0/qcomp=0.60/qpmin=0/qpmax=69/qpstep=4/cplxblur=20.0/qblur=0.5/vbv_maxrate=14000/vbv_bufsize=14000/nal_hrd=none/filler=0/ip_ratio=1.40/aq=1: 1.00
    Язык : German
    Default : Да
    Forced : Нет
    Аудио #1
    Идентификатор : 2
    Формат : AC-3
    Формат/Информация : Audio Coding 3
    Идентификатор кодека : A_AC3
    Продолжительность : 1 ч. 19 м.
    Вид битрейта : Постоянный
    Битрейт : 192 Кбит/сек
    Каналы : 2 канала
    Расположение каналов : Front: L R
    Частота : 48, 0 КГц
    Частота кадров : 31, 250 кадров/сек (1536 SPF)
    Битовая глубина : 16 бит
    Метод сжатия : С потерями
    Задержка видео : 26 мс.
    Размер потока : 110 Мбайт (8%)
    Заголовок : Многоголосый закадровый
    Язык : Russian
    ServiceKind/String : Complete Main
    Default : Да
    Forced : Нет
    Аудио #2
    Идентификатор : 3
    Формат : AC-3
    Формат/Информация : Audio Coding 3
    Идентификатор кодека : A_AC3
    Продолжительность : 1 ч. 19 м.
    Вид битрейта : Постоянный
    Битрейт : 192 Кбит/сек
    Каналы : 2 канала
    Расположение каналов : Front: L R
    Частота : 48, 0 КГц
    Частота кадров : 31, 250 кадров/сек (1536 SPF)
    Битовая глубина : 16 бит
    Метод сжатия : С потерями
    Задержка видео : 26 мс.
    Размер потока : 110 Мбайт (8%)
    Заголовок : Одноголосый закадровый
    Язык : Russian
    ServiceKind/String : Complete Main
    Default : Нет
    Forced : Нет
    Аудио #3
    Идентификатор : 4
    Формат : AC-3
    Формат/Информация : Audio Coding 3
    Идентификатор кодека : A_AC3
    Продолжительность : 1 ч. 19 м.
    Вид битрейта : Постоянный
    Битрейт : 192 Кбит/сек
    Каналы : 2 канала
    Расположение каналов : Front: L R
    Частота : 48, 0 КГц
    Частота кадров : 31, 250 кадров/сек (1536 SPF)
    Битовая глубина : 16 бит
    Метод сжатия : С потерями
    Задержка видео : 26 мс.
    Размер потока : 110 Мбайт (8%)
    Заголовок : Оригинал
    Язык : German
    ServiceKind/String : Complete Main
    Default : Нет
    Forced : Нет

    Скриншоты для ознакомления




    Все одноименные релизы в Клубе
    Время раздачи: с 13: 00 до 01: 00 МСК, выходные круглосуточно (до появления первых 3-5 скачавших)


    Онлайн видео А ну-ка, девочка, разденься!



    А ну-ка, девочка, разденься!/Geh, zieh dein Dirndl aus (1973) DVDRip [H.264]
    Рейтинг →
     (голосов: 1, оценка 3/5, голосовать можно 1 раз )

    Другие торренты по теме:



      Комментарии (0):

      Информация

      Информация

        Посетители, находящиеся в группе Гости, не могут оставлять комментарии в данной новости.

        ↓ Меню




        ↓ Опрос

        Вы добавили сайт в закладки?
        Да
        Нет


        Top 10 за месяц (Фильмы)