.
Авторизация | Регистрация
Хочешь лучшие торренты? Добавь свой email!
Добавить

Торрент скачать бесплатно

  • support: webmaster@btracker.org
» » Свингеры / Свiнгери / Swingeri (2018) WEB-DL [H.264 / 1080p-LQ] [UKR / RU Sub] торрент скачать бесплатно


    Свингеры / Свiнгери / Swingeri (2018) WEB-DL [H.264 / 1080p-LQ] [UKR / RU Sub] торрент скачать бесплатно

    Опубликовал: Админ | Дата: 29-05-2018, 05:00 | .torrent скачали: 4

    Свингеры / Свiнгери / Swingeri (2018) WEB-DL [H.264 / 1080p-LQ] [UKR / RU Sub]Производство: Украина, Латвия/Platforma Filma, Cinevilla Studio, F Films
    Жанр: Комедия
    Режиссер: Андрес Екис
    Продюсер: Кристианс Алхимионокс, Andrew Fesiak, Andrey Nogin, ...

    Актеры
    Ольга Полякова, Даша Астафьева, Вячеслав Довженко, Михаил Кукуюк, Алексей Вертинский, Анна Саливанчук ...

    Описание

    Состоятельный бизнесмен Игорь скучает в компании своей девушки Илоны — светской львицы, которая больше его самого любит деньги и хочет стать дизайнером за его счёт. Между тем в хрущёвку возвращается с работы врач-пульмонолог Андрей. Его жена Ирина требует секса, на который у него нет ни сил, ни желания. 10 лет в браке убили страсть.
    Игорь и Ирина подстрекают своих партнёров прибегнуть к сексуальному эксперименту — свингерскому вечеру. Что будет, если эти пары поменяются партнёрами?

    Дата мировой премьеры: 1 января 2018
    Дата российской премьеры: -
    Продолжительность: 01: 37: 27
    Качество видео: WEB-DL 1080p
    Язык озвучки: Украинский
    Перевод: Отсутствует
    Субтитры: Русские (отдельным файлом)
    Видео: AVC, 1920x800 (2.40: 1), 24.000 fps, 3 998 kb/s
    Аудио: AAC LC, 48.0 KHz, 2 ch, 192 kb/s (Ukrainian)
    General
    Complete name : Свінгери.2018.WEB-DL.1080p.mkv
    Format : Matroska
    Format version : Version 4/Version 2
    File size : 2.85 GiB
    Duration : 1 h 37 min
    Overall bit rate mode : Variable
    Overall bit rate : 4 193 kb/s
    Encoded date : UTC 2018-03-01 17: 13: 35
    Writing application : mkvmerge v7.8.0 (\'River Man\') 32bit built on Apr 3 2015 12: 11: 22
    Writing library : libebml v1.3.1 + libmatroska v1.4.2
    Video
    ID : 1
    Format : AVC
    Format/Info : Advanced Video Codec
    Format profile : High@L4
    Format settings : CABAC/3 Ref Frames
    Format settings, CABAC : Yes
    Format settings, ReFrames : 3 frames
    Format settings, GOP : M=1, N=72
    Codec ID : V_MPEG4/ISO/AVC
    Duration : 1 h 37 min
    Bit rate mode : Variable
    Bit rate : 3 998 kb/s
    Width : 1 920 pixels
    Height : 800 pixels
    Display aspect ratio : 2.40: 1
    Frame rate mode : Constant
    Frame rate : 24.000 FPS
    Color space : YUV
    Chroma subsampling : 4: 2: 0
    Bit depth : 8 bits
    Scan type : Progressive
    Bits/(Pixel*Frame) : 0.108
    Stream size : 2.72 GiB (95%)
    Default : Yes
    Forced : No
    Audio
    ID : 2
    Format : AAC
    Format/Info : Advanced Audio Codec
    Format profile : LC
    Codec ID : A_AAC-2
    Duration : 1 h 37 min
    Bit rate : 192 kb/s
    Channel(s) : 2 channels
    Channel positions : Front: L R
    Sampling rate : 48.0 kHz
    Frame rate : 46.875 FPS (1024 SPF)
    Compression mode : Lossy
    Stream size : 134 MiB (5%)
    Language : Ukrainian
    Default : Yes
    Forced : No

    Скриншоты для ознакомления




    Все одноименные релизы в Клубе
    Время раздачи: 24/7 (круглосуточно) (до появления первых 3-5 скачавших)


    Онлайн видео Свингеры



    Свингеры/Свiнгери/Swingeri (2018) WEB-DL [H.264/1080p-LQ] [UKR/RU Sub]
    Рейтинг →
     (голосов: 1, оценка 4/5, голосовать можно 1 раз )

    Другие торренты по теме:

  • Свингеры / Свiнгери (2018) WEB-DLRip [UKR / RU Sub]


    • Комментарии (0):

      Информация

      Информация

        Посетители, находящиеся в группе Гости, не могут оставлять комментарии в данной новости.

        ↓ Меню




        ↓ Опрос

        Вы добавили сайт в закладки?
        Да
        Нет


        Top 10 за месяц (Фильмы)