.
Авторизация | Регистрация
Хочешь лучшие торренты? Добавь свой email!
Добавить

Торрент скачать бесплатно

  • support: webmaster@btracker.org
» » Железная дорога (2007) WEBRip [H.264 / 720p-LQ] торрент скачать бесплатно


    Железная дорога (2007) WEBRip [H.264 / 720p-LQ] торрент скачать бесплатно

    Опубликовал: Админ | Дата: 29-05-2018, 05:00 | .torrent скачали: 1

    Железная дорога (2007) WEBRip [H.264 / 720p-LQ]Производство: Россия/Компания 29 февраля
    Жанр: Драма, комедия
    Режиссер: Алексей Федорченко

    Актеры
    Сергей Беляев, Виктор Тереля, Ольга Дегтярева, Даниил Шавкунов, Петр Зайченко, Виктор Матизен, Татьяна Орлова, Александр Нехороших, Леонид Чистов, Сергей Ярмолюк

    Описание

    Однажды осенью два друга — шофер и директор школы — воруют вагон угля и на старом паровозе по заброшенной с прошлого века железнодорожной ветке везут его продавать. Директор хочет ремонт в школе сделать и компьютер купить, а шофер бежит от своей всепожирающей ревности. С друзьями едет сын шофера — немой семилетний мальчик Мишка, буфетчица Луиза и странное дряхлое существо — машинист. Найдут ли друзья свое счастье?

    Возраст: 18+ (зрителям, достигшим 18 лет. запрещено для детей)
    Релиз от: Aлexandr
    Продолжительность: 01: 42: 02
    Качество видео: WEBRip
    Субтитры: Отсутствуют
    Видео: AVC/H.264, 1280x682 (1.85: 1), ~4000 Kbps
    Аудио: AC3, 2 ch, 192 Kbps

    Общее
    Уникальный идентификатор : 252313481630292989322400262739729719846 (0xBDD1CF184B1CD9C98DE16547C2522226)
    Полное имя : D: Железная дорога (2007).by.Алехаndr.mkv
    Формат : Matroska
    Версия формата : Version 4/Version 2
    Размер файла : 2, 99 Гбайт
    Продолжительность : 1 ч. 42 м.
    Общий поток : 4193 Кбит/сек
    Дата кодирования : UTC 2018-05-28 13: 25: 07
    Программа кодирования : mkvmerge v23.0.0 (\'The Bride Said No\') 64-bit
    Библиотека кодирования : libebml v1.3.6 + libmatroska v1.4.9/Lavf57.71.100
    Видео
    Идентификатор : 1
    Формат : AVC
    Формат/Информация : Advanced Video Codec
    Профиль формата : Main@L3.1
    Настройки формата : CABAC/1 Ref Frames
    Параметр CABAC формата : Да
    Параметр RefFrames формата : 1 кадр
    Идентификатор кодека : V_MPEG4/ISO/AVC
    Продолжительность : 1 ч. 42 м.
    Битрейт : 3999 Кбит/сек
    Ширина : 1280 пикселей
    Высота : 682 пикселя
    Соотношение сторон : 1, 85: 1
    Режим частоты кадров : Постоянный
    Частота кадров : 25, 000 кадров/сек
    Цветовое пространство : YUV
    Субдискретизация насыщенности : 4: 2: 0
    Битовая глубина : 8 бит
    Тип развёртки : Прогрессивная
    Бит/(Пиксели*Кадры) : 0.183
    Размер потока : 2, 85 Гбайт (95%)
    Default : Да
    Forced : Нет
    Аудио
    Идентификатор : 2
    Формат : AC-3
    Формат/Информация : Audio Coding 3
    Идентификатор кодека : A_AC3
    Продолжительность : 1 ч. 42 м.
    Вид битрейта : Постоянный
    Битрейт : 192 Кбит/сек
    Каналы : 2 канала
    Расположение каналов : Front: L R
    Частота : 48, 0 КГц
    Частота кадров : 31, 250 кадров/сек (1536 SPF)
    Битовая глубина : 16 бит
    Метод сжатия : С потерями
    Размер потока : 140 Мбайт (5%)
    ServiceKind/String : Complete Main
    Default : Да
    Forced : Нет

    Скриншоты для ознакомления



    Все одноименные релизы в Клубе
    Время раздачи: 24/7 (круглосуточно) (до появления первых 3-5 скачавших)


    Онлайн видео Железная дорога (2007) WEBRip [H.264



    Железная дорога (2007) WEBRip [H.264/720p-LQ]
    Рейтинг →
     (голосов: 1, оценка 3/5, голосовать можно 1 раз )

    Другие торренты по теме:



      Комментарии (0):

      Информация

      Информация

        Посетители, находящиеся в группе Гости, не могут оставлять комментарии в данной новости.

        ↓ Меню




        ↓ Опрос

        Вы добавили сайт в закладки?
        Да
        Нет


        Top 10 за месяц (Фильмы)