.
Авторизация | Регистрация
Хочешь лучшие торренты? Добавь свой email!
Добавить

Торрент скачать бесплатно

  • support: webmaster@btracker.org
» » Гладиатор / Gladiator (2000) UHD BDRemux [H.265 / 2160p] [4K, HDR, 10-bit] [Театральная версия] торрент скачать бесплатно


    Гладиатор / Gladiator (2000) UHD BDRemux [H.265 / 2160p] [4K, HDR, 10-bit] [Театральная версия] торрент скачать бесплатно

    Опубликовал: Админ | Дата: 29-05-2018, 05:00 | .torrent скачали: 1

    Гладиатор / Gladiator (2000) UHD BDRemux [H.265 / 2160p] [4K, HDR, 10-bit] [Театральная версия]Производство: США, Великобритания/Universal Pictures
    Жанр: боевик, драма, приключения
    Режиссер: Ридли Скотт
    Продюсер: Дэвид Францони, Бранко Лустиг, Дуглас Уик

    Актеры
    Рассел Кроу, Хоакин Феникс, Конни Нильсен, Оливер Рид, Ричард Харрис, Дерек Джекоби, Джимон Хонсу, Дэвид Скофилд, Джон Шрэпнел, Томас Арана

    Описание

    В великой Римской империи не было военачальника, равного генералу Максимусу. Непобедимые легионы, которыми командовал этот благородный воин, боготворили его и могли последовать за ним даже в ад.
    Но случилось так, что отважный Максимус, готовый сразиться с любым противником в честном бою, оказался бессилен против вероломных придворных интриг. Генерала предали и приговорили к смерти. Чудом избежав гибели, Максимус становится гладиатором.
    Быстро снискав себе славу в кровавых поединках, он оказывается в знаменитом римском Колизее, на арене которого он встретится в смертельной схватке со своим заклятым врагом…

    Возраст: 16+ (зрителям, достигшим 16 лет)
    Рейтинг MPAA: R (лицам до 17 лет обязательно присутствие взрослого)

    Релиз от: ExKinoRay Ivantsov
    Продолжительность: 02: 34: 59
    Качество: UHD BDRemux (HDR)
    Перевод: Дублированный (Лицензия EUR), профессиональный многоголосый, авторский.
    Субтитры: Русские (forced, full) Английские (full, SDH)
    Видео: H.265/HEVC, 3840x2160, (16: 9), 43.4 Mbps, 23.976 fps
    Аудио 1: DTS, 6 ch, 768 kbps, (Русский) - Дублированный
    Аудио 2: AC3, 6 ch, 640 kbps, (Русский) - Дублированный
    Аудио 3: DTS, 6 ch, 768 kbps, (Русский) - MVO, Супербит
    Аудио 4: AC3, 6 ch, 640 kbps, (Русский) - MVO, Интер
    Аудио 5: AC3, 6 ch, 320 kbps, (Русский) - MVO
    Аудио 6: DTS, 6 ch, 1510 kbps, (Русский) - AVO, А. Гаврилов
    Аудио 7: DTS, 6 ch, 1510 kbps, (Русский) - AVO, Кузнецов
    Аудио 8: DTS: X MA, 8 ch, 3840 kbps, (Английский)
    Аудио 9: AC3, 6 ch, 640 kbps, (Английский)
    Аудио 10: AC3, 2 ch, 192 kbps, (Английский) Commentary
    Аудио 11: AC3, 2 ch, 192 kbps, (Английский) Commentary
    Диск на Blu-ray.com
    Просмотр 4K HDR-контента на ПК
    Общее
    Уникальный идентификатор : 148688825188706742333161837942219012112 (0x6FDC6D13C0F87E6F41B8F60CE3F8F810)
    Полное имя : Gladiator.2000.Theatrical.Lic.BDRemux.2160p.4K.UltraHD.HEVC.HDR.IVA(6xRUS.ENG).ExKinoRay.mkv
    Формат : Matroska
    Версия формата : Version 4/Version 2
    Размер файла : 58, 9 Гбайт
    Продолжительность : 2 ч. 35 м.
    Общий поток : 54, 4 Мбит/сек
    Название фильма : Гладиатор (Театральная версия)/Gladiator (Theatrical Cut) ( 2000 ) UHD BDRemux | HDR, 4K | IVA(6xRUS.ENG) | ExKinoRay
    Дата кодирования : UTC 2018-05-26 13: 36: 38
    Программа кодирования : mkvmerge v23.0.0 (\'The Bride Said No\') 64-bit
    Библиотека кодирования : libebml v1.3.6 + libmatroska v1.4.9
    Обложка : Yes
    Attachments : cover
    Видео
    Идентификатор : 1
    Формат : HEVC
    Формат/Информация : High Efficiency Video Coding
    Коммерческое название : HDR10
    Профиль формата : Main10@L5.1@High
    Идентификатор кодека : V_MPEGH/ISO/HEVC
    Продолжительность : 2 ч. 34 м.
    Битрейт : 43, 4 Мбит/сек
    Ширина : 3840 пикселей
    Высота : 2160 пикселей
    Соотношение сторон : 16: 9
    Режим частоты кадров : Постоянный
    Частота кадров : 23, 976 (23976/1000) кадра/сек
    Частота кадров в оригинале : 23, 976 (24000/1001) кадра/сек
    Цветовое пространство : YUV
    Субдискретизация насыщенности : 4: 2: 0 (Type 2)
    Битовая глубина : 10 бит
    Бит/(Пиксели*Кадры) : 0.218
    Размер потока : 46, 9 Гбайт (80%)
    Заголовок : Gladiator.2000.Theatrical.Lic.BDRemux.2160p.4K.UltraHD.HEVC.HDR
    Язык : English
    Default : Да
    Forced : Нет
    Цветовой диапазон : Limited
    Основные цвета : BT.2020
    Характеристики трансфера : PQ
    Коэффициенты матрицы : BT.2020 non-constant
    MasteringDisplay_ColorPrimaries : BT.709
    MasteringDisplay_Luminance : min: 0.0050 cd/m2, max: 1000 cd/m2
    MaxCLL : 1000 cd/m2
    MaxFALL : 497 cd/m2
    Аудио #1
    Идентификатор : 2
    Формат : DTS
    Формат/Информация : Digital Theater Systems
    Идентификатор кодека : A_DTS
    Продолжительность : 2 ч. 34 м.
    Вид битрейта : Постоянный
    Битрейт : 768 Кбит/сек
    Каналы : 6 каналов
    Расположение каналов : Front: L C R, Side: L R, LFE
    Частота : 48, 0 КГц
    Частота кадров : 93, 750 кадра/сек (512 SPF)
    Битовая глубина : 24 бит
    Метод сжатия : С потерями
    Размер потока : 851 Мбайт (1%)
    Заголовок : | Дублированный |
    Язык : Russian
    Default : Да
    Forced : Нет
    Аудио #2
    Идентификатор : 3
    Формат : AC-3
    Формат/Информация : Audio Coding 3
    Идентификатор кодека : A_AC3
    Продолжительность : 2 ч. 34 м.
    Вид битрейта : Постоянный
    Битрейт : 640 Кбит/сек
    Каналы : 6 каналов
    Расположение каналов : Front: L C R, Side: L R, LFE
    Частота : 48, 0 КГц
    Частота кадров : 31, 250 кадров/сек (1536 SPF)
    Битовая глубина : 16 бит
    Метод сжатия : С потерями
    Размер потока : 709 Мбайт (1%)
    Заголовок : | Дублированный |
    Язык : Russian
    ServiceKind/String : Complete Main
    Default : Нет
    Forced : Нет
    Аудио #3
    Идентификатор : 4
    Формат : DTS
    Формат/Информация : Digital Theater Systems
    Идентификатор кодека : A_DTS
    Продолжительность : 2 ч. 34 м.
    Вид битрейта : Постоянный
    Битрейт : 768 Кбит/сек
    Каналы : 6 каналов
    Расположение каналов : Front: L C R, Side: L R, LFE
    Частота : 48, 0 КГц
    Частота кадров : 93, 750 кадра/сек (512 SPF)
    Битовая глубина : 24 бит
    Метод сжатия : С потерями
    Размер потока : 851 Мбайт (1%)
    Заголовок : | MVO, Супербит |
    Язык : Russian
    Default : Нет
    Forced : Нет
    Аудио #4
    Идентификатор : 5
    Формат : AC-3
    Формат/Информация : Audio Coding 3
    Идентификатор кодека : A_AC3
    Продолжительность : 2 ч. 34 м.
    Вид битрейта : Постоянный
    Битрейт : 640 Кбит/сек
    Каналы : 6 каналов
    Расположение каналов : Front: L C R, Side: L R, LFE
    Частота : 48, 0 КГц
    Частота кадров : 31, 250 кадров/сек (1536 SPF)
    Битовая глубина : 16 бит
    Метод сжатия : С потерями
    Размер потока : 709 Мбайт (1%)
    Заголовок : | MVO, Интер |
    Язык : Russian
    ServiceKind/String : Complete Main
    Default : Нет
    Forced : Нет
    Аудио #5
    Идентификатор : 6
    Формат : AC-3
    Формат/Информация : Audio Coding 3
    Идентификатор кодека : A_AC3
    Продолжительность : 2 ч. 35 м.
    Вид битрейта : Постоянный
    Битрейт : 320 Кбит/сек
    Каналы : 6 каналов
    Расположение каналов : Front: L C R, Side: L R, LFE
    Частота : 48, 0 КГц
    Частота кадров : 31, 250 кадров/сек (1536 SPF)
    Битовая глубина : 16 бит
    Метод сжатия : С потерями
    Размер потока : 355 Мбайт (1%)
    Заголовок : | MVO |
    Язык : Russian
    ServiceKind/String : Complete Main
    Default : Нет
    Forced : Нет
    Аудио #6
    Идентификатор : 7
    Формат : DTS
    Формат/Информация : Digital Theater Systems
    Идентификатор кодека : A_DTS
    Продолжительность : 2 ч. 35 м.
    Вид битрейта : Постоянный
    Битрейт : 1510 Кбит/сек
    Каналы : 6 каналов
    Расположение каналов : Front: L C R, Side: L R, LFE
    Частота : 48, 0 КГц
    Частота кадров : 93, 750 кадра/сек (512 SPF)
    Битовая глубина : 24 бит
    Метод сжатия : С потерями
    Размер потока : 1, 63 Гбайт (3%)
    Заголовок : | AVO, А. Гаврилов |
    Язык : Russian
    Default : Нет
    Forced : Нет
    Аудио #7
    Идентификатор : 8
    Формат : DTS
    Формат/Информация : Digital Theater Systems
    Идентификатор кодека : A_DTS
    Продолжительность : 2 ч. 35 м.
    Вид битрейта : Постоянный
    Битрейт : 1510 Кбит/сек
    Каналы : 6 каналов
    Расположение каналов : Front: L C R, Side: L R, LFE
    Частота : 48, 0 КГц
    Частота кадров : 93, 750 кадра/сек (512 SPF)
    Битовая глубина : 24 бит
    Метод сжатия : С потерями
    Размер потока : 1, 63 Гбайт (3%)
    Заголовок : | AVO, Кузнецов |
    Язык : Russian
    Default : Нет
    Forced : Нет
    Аудио #8
    Идентификатор : 9
    Формат : DTS
    Формат/Информация : Digital Theater Systems
    Профиль формата : X/MA/Core
    Идентификатор кодека : A_DTS
    Продолжительность : 2 ч. 34 м.
    Вид битрейта : Переменный/Переменный/Постоянный
    Битрейт : 3840 Кбит/сек/3840 Кбит/сек/1509 Кбит/сек
    Каналы : Object Based/8 каналов/6 каналов
    Расположение каналов : Object Based/Front: L C R, Side: L R, Back: L R, LFE/Front: L C R, Side: L R, LFE
    Частота : /48, 0 КГц/48, 0 КГц
    Частота кадров : 93, 750 кадра/сек (512 SPF)
    Битовая глубина : /24 бит/24 бит
    Метод сжатия : /Lossless/Lossy
    Размер потока : 4, 17 Гбайт (7%)
    Заголовок : | Original |
    Язык : English
    Default : Нет
    Forced : Нет
    Аудио #9
    Идентификатор : 10
    Формат : AC-3
    Формат/Информация : Audio Coding 3
    Идентификатор кодека : A_AC3
    Продолжительность : 2 ч. 34 м.
    Вид битрейта : Постоянный
    Битрейт : 640 Кбит/сек
    Каналы : 6 каналов
    Расположение каналов : Front: L C R, Side: L R, LFE
    Частота : 48, 0 КГц
    Частота кадров : 31, 250 кадров/сек (1536 SPF)
    Битовая глубина : 16 бит
    Метод сжатия : С потерями
    Размер потока : 709 Мбайт (1%)
    Заголовок : | Original |
    Язык : English
    ServiceKind/String : Complete Main
    Default : Нет
    Forced : Нет
    Аудио #10
    Идентификатор : 11
    Формат : AC-3
    Формат/Информация : Audio Coding 3
    Идентификатор кодека : A_AC3
    Продолжительность : 2 ч. 34 м.
    Вид битрейта : Постоянный
    Битрейт : 192 Кбит/сек
    Каналы : 2 канала
    Расположение каналов : Front: L R
    Частота : 48, 0 КГц
    Частота кадров : 31, 250 кадров/сек (1536 SPF)
    Битовая глубина : 16 бит
    Метод сжатия : С потерями
    Размер потока : 213 Мбайт (0%)
    Заголовок : | Commentary |
    Язык : English
    ServiceKind/String : Complete Main
    Default : Нет
    Forced : Нет
    Аудио #11
    Идентификатор : 12
    Формат : AC-3
    Формат/Информация : Audio Coding 3
    Идентификатор кодека : A_AC3
    Продолжительность : 2 ч. 34 м.
    Вид битрейта : Постоянный
    Битрейт : 192 Кбит/сек
    Каналы : 2 канала
    Расположение каналов : Front: L R
    Частота : 48, 0 КГц
    Частота кадров : 31, 250 кадров/сек (1536 SPF)
    Битовая глубина : 16 бит
    Метод сжатия : С потерями
    Размер потока : 213 Мбайт (0%)
    Заголовок : | Commentary |
    Язык : English
    ServiceKind/String : Complete Main
    Default : Нет
    Forced : Нет
    Текст #1
    Идентификатор : 13
    Формат : UTF-8
    Идентификатор кодека : S_TEXT/UTF8
    Идентификатор кодека/Информация : UTF-8 Plain Text
    Продолжительность : 2 ч. 29 м.
    Битрейт : 0 бит/сек
    ElementCount : 17
    Размер потока : 787 байт (0%)
    Заголовок : Forced
    Язык : Russian
    Default : Да
    Forced : Да
    Текст #2
    Идентификатор : 14
    Формат : UTF-8
    Идентификатор кодека : S_TEXT/UTF8
    Идентификатор кодека/Информация : UTF-8 Plain Text
    Продолжительность : 2 ч. 26 м.
    Битрейт : 62 бит/сек
    ElementCount : 1270
    Размер потока : 66, 9 Кбайт (0%)
    Заголовок : Full
    Язык : Russian
    Default : Нет
    Forced : Нет
    Текст #3
    Идентификатор : 15
    Формат : UTF-8
    Идентификатор кодека : S_TEXT/UTF8
    Идентификатор кодека/Информация : UTF-8 Plain Text
    Продолжительность : 2 ч. 26 м.
    Битрейт : 63 бит/сек
    ElementCount : 1262
    Размер потока : 68, 4 Кбайт (0%)
    Заголовок : Full v.2
    Язык : Russian
    Default : Нет
    Forced : Нет
    Текст #4
    Идентификатор : 16
    Формат : UTF-8
    Идентификатор кодека : S_TEXT/UTF8
    Идентификатор кодека/Информация : UTF-8 Plain Text
    Продолжительность : 2 ч. 24 м.
    Битрейт : 62 бит/сек
    ElementCount : 1321
    Размер потока : 66, 0 Кбайт (0%)
    Заголовок : Full v.3
    Язык : Russian
    Default : Нет
    Forced : Нет
    Текст #5
    Идентификатор : 17
    Формат : UTF-8
    Идентификатор кодека : S_TEXT/UTF8
    Идентификатор кодека/Информация : UTF-8 Plain Text
    Продолжительность : 2 ч. 24 м.
    Битрейт : 37 бит/сек
    ElementCount : 1346
    Размер потока : 39, 5 Кбайт (0%)
    Заголовок : Full
    Язык : English
    Default : Нет
    Forced : Нет
    Текст #6
    Идентификатор : 18
    Формат : UTF-8
    Идентификатор кодека : S_TEXT/UTF8
    Идентификатор кодека/Информация : UTF-8 Plain Text
    Продолжительность : 2 ч. 25 м.
    Битрейт : 38 бит/сек
    ElementCount : 1482
    Размер потока : 40, 9 Кбайт (0%)
    Заголовок : SDH
    Язык : English
    Default : Нет
    Forced : Нет
    Меню
    00: 00: 00.000 : en: Chapter 1
    00: 07: 13.307 : en: Chapter 2
    00: 12: 50.102 : en: Chapter 3
    00: 17: 29.006 : en: Chapter 4
    00: 22: 20.338 : en: Chapter 5
    00: 31: 49.407 : en: Chapter 6
    00: 36: 04.537 : en: Chapter 7
    00: 39: 20.399 : en: Chapter 8
    00: 46: 02.384 : en: Chapter 9
    00: 50: 05.502 : en: Chapter 10
    00: 53: 15.984 : en: Chapter 11
    00: 58: 31.382 : en: Chapter 12
    01: 06: 07.087 : en: Chapter 13
    01: 15: 04.082 : en: Chapter 14
    01: 21: 23.503 : en: Chapter 15
    01: 29: 13.639 : en: Chapter 16
    01: 34: 03.971 : en: Chapter 17
    01: 39: 33.800 : en: Chapter 18
    01: 44: 11.244 : en: Chapter 19
    01: 48: 18.450 : en: Chapter 20
    01: 52: 14.978 : en: Chapter 21
    01: 58: 17.381 : en: Chapter 22
    01: 59: 31.038 : en: Chapter 23
    02: 09: 19.251 : en: Chapter 24
    02: 13: 33.755 : en: Chapter 25
    02: 18: 36.140 : en: Chapter 26
    02: 22: 58.944 : en: Chapter 27
    02: 27: 13.115 : en: Chapter 28
    YouTube

    Скриншоты для ознакомления


    Релизы фильма Гладиатор/Gladiator на NNM Club
    Время раздачи: с 9: 00 до 23: 00


    Онлайн видео Гладиатор



    Гладиатор/Gladiator (2000) UHD BDRemux [H.265/2160p] [4K, HDR, 10-bit] [Театральная версия]
    Рейтинг →
     (голосов: 1, оценка 5/5, голосовать можно 1 раз )

    Другие торренты по теме:

  • Гладиатор / Gladiator (2000) HDTVRip [open matte] [h264] [AVO]
  • Гладиатор / Gladiator (2000) BDRemux [H.264 / 1080p] REMASTERED [Extended Cut] [10th Anniversary Edition] скачать через торрент бесплатно
  • Гладиатор / Gladiator (2000) BDRip [H.264 / 1080p] [10th Anniversary Remastered Edition] [Theatrical & Extended Cut] скачать через торрент бесплатно
  • Гладиатор / Gladiator (2000) BDRip [H.264 / 720p] [Extended Cut]
  • Гладиатор / Gladiator [10th Anniversary Remastered Edition] [Extended Cut] (2000) BDRip [H.265 / 1080p]
  • Гладиатор / Gladiator (1992) WEB-DLRip
  • Гладиатор / Gladiator (2000) HDTVRip [H.264 / 720p] [Open Matte] [Extended Cut]
  • Гладиатор / Gladiator (2000) BDRip [H.264 / 1080p] [10th Anniversary Remastered Edition] [Extended Cut]


    • Комментарии (0):

      Информация

      Информация

        Посетители, находящиеся в группе Гости, не могут оставлять комментарии в данной новости.

        ↓ Меню




        ↓ Опрос

        Вы добавили сайт в закладки?
        Да
        Нет


        Top 10 за месяц (Фильмы)