.
Авторизация | Регистрация
Хочешь лучшие торренты? Добавь свой email!
Добавить

Торрент скачать бесплатно

  • support: webmaster@btracker.org
» » Черепашки-ниндзя 2 / Teenage Mutant Ninja Turtles: Out of the Shadows (2016) UHD BDRemux [H.265 / 2160p] [4K, HDR, 10-bit] торрент скачать бесплатно


    Черепашки-ниндзя 2 / Teenage Mutant Ninja Turtles: Out of the Shadows (2016) UHD BDRemux [H.265 / 2160p] [4K, HDR, 10-bit] торрент скачать бесплатно

    Опубликовал: Админ | Дата: 29-05-2018, 05:00 | .torrent скачали: 0

    Черепашки-ниндзя 2 / Teenage Mutant Ninja Turtles: Out of the Shadows (2016) UHD BDRemux [H.265 / 2160p] [4K, HDR, 10-bit]Производство: США, Гонконг, Китай, Канада/China Movie Media Group
    Жанр: фантастика, боевик, комедия, приключения
    Режиссер: Дэйв Грин
    Продюсер: Майкл Бэй, Эндрю Форм, Скотт Медник

    Актеры
    Меган Фокс, Алан Ричсон, Уилл Арнетт, Стефен Фаррелли, Алессандра Амбросио, Брэд Гэррет, Тайлер Перри

    Описание

    Долгое время черепашки-ниндзя скрывались от людей в лабиринтах городской канализации. На протяжении нескольких лет учитель Сплинтер обучал их боевым искусствам и прививал им чувство справедливости. В один прекрасный момент им пришлось подняться наверх, чтобы спасти Нью-Йорк от Шредера, предводителя Клана Футов, захватившего власть в Нью-Йорке. Вместе с отважным репортером Эйприл и ее оператором Верном, бесстрашные воины смогли одержать победу и очистить любимый город от преступности. Леонардо, Микеланджело, Рафаэль и Донателло нашли свое предназначение в этом мире и стали защитниками своего города. Они навели порядок в Нью-Йорке и с чистой совестью могли отправиться на покой, но однажды им вновь пришлось столкнуться с могущественным врагом, угрожающим их городу.

    Возраст: 6+ (зрителям, достигшим 6 лет)
    Рейтинг MPAA: PG-13 (детям до 13 лет просмотр нежелателен)

    Релиз от: ExKinoRay Ivantsov
    Продолжительность: 01: 52: 15
    Качество: UHD BDRemux (HDR)
    Перевод: Дублированный (Лицензия EUR), авторский.
    Субтитры: Русские (forced, full), Украинские (forced, full), Английские (full, SDH)
    Видео: H.265/HEVC, 3840x2160p, (16: 9), 60.2 Mbps, 23.976 fps
    Аудио 1: AC3, 6 ch, 640 kbps, (Русский) - Дублированный
    Аудио 2: AC3, 2 ch, 192 kbps, (Украинский) - Дублированный
    Аудио 3: DTS-HD MA, 8 ch, 5154 kbps, (Русский) - AVO, А.Гаврилов
    Аудио 4: DTS-HD MA, 8 ch, 4625 kbps, (Русский) - AVO, Ю.Живов
    Аудио 5: TrueHD+Atmos, 8 ch, 5080 kbps, (Английский)
    Аудио 6: AC3, 6 ch, 640 kbps, (Английский)
    Диск на Blu-ray.com
    Просмотр 4K HDR-контента на ПК
    Общее
    Уникальный идентификатор : 328380957792800056154044267012513199538 (0xF70BDF39F2C646F6CC3AA7068945F5B2)
    Полное имя : Teenage.Mutant.Ninja.Turtles.Out.of.the.Shadows.2016.BDRemux.2160p.4K.UltraHD.HEVC.HDR.IVA(3xRUS.UKR.ENG).ExKinoRay.mkv
    Формат : Matroska
    Версия формата : Version 4/Version 2
    Размер файла : 60, 0 Гбайт
    Продолжительность : 1 ч. 52 м.
    Режим общего битрейта : Переменный
    Общий поток : 76, 6 Мбит/сек
    Название фильма : Черепашки-ниндзя 2/Teenage Mutant Ninja Turtles: Out of the Shadows ( 2016 ) UHD BDRemux | HDR, 4K | IVA(3xRUS.UKR.ENG) | ExKinoRay
    Дата кодирования : UTC 2018-05-26 21: 11: 31
    Программа кодирования : mkvmerge v23.0.0 (\'The Bride Said No\') 64-bit
    Библиотека кодирования : libebml v1.3.6 + libmatroska v1.4.9
    Обложка : Yes
    Attachments : cover
    Видео
    Идентификатор : 1
    Формат : HEVC
    Формат/Информация : High Efficiency Video Coding
    Коммерческое название : HDR10
    Профиль формата : Main10@L5.1@High
    Идентификатор кодека : V_MPEGH/ISO/HEVC
    Продолжительность : 1 ч. 52 м.
    Битрейт : 60, 2 Мбит/сек
    Ширина : 3840 пикселей
    Высота : 2160 пикселей
    Соотношение сторон : 16: 9
    Режим частоты кадров : Постоянный
    Частота кадров : 23, 976 (24000/1001) кадра/сек
    Цветовое пространство : YUV
    Субдискретизация насыщенности : 4: 2: 0 (Type 2)
    Битовая глубина : 10 бит
    Бит/(Пиксели*Кадры) : 0.303
    Размер потока : 47, 1 Гбайт (79%)
    Библиотека кодирования : ATEME Titan KFE 3.7.3 (4.7.3.1003)
    Язык : English
    Default : Да
    Forced : Нет
    Цветовой диапазон : Limited
    Основные цвета : BT.2020
    Характеристики трансфера : PQ
    Коэффициенты матрицы : BT.2020 non-constant
    MasteringDisplay_Luminance : min: 0.0050 cd/m2, max: 1000 cd/m2
    Аудио #1
    Идентификатор : 2
    Формат : AC-3
    Формат/Информация : Audio Coding 3
    Идентификатор кодека : A_AC3
    Продолжительность : 1 ч. 52 м.
    Вид битрейта : Постоянный
    Битрейт : 640 Кбит/сек
    Каналы : 6 каналов
    Расположение каналов : Front: L C R, Side: L R, LFE
    Частота : 48, 0 КГц
    Частота кадров : 31, 250 кадров/сек (1536 SPF)
    Битовая глубина : 16 бит
    Метод сжатия : С потерями
    Размер потока : 513 Мбайт (1%)
    Заголовок : | Дублированный |
    Язык : Russian
    ServiceKind/String : Complete Main
    Default : Да
    Forced : Нет
    Аудио #2
    Идентификатор : 3
    Формат : AC-3
    Формат/Информация : Audio Coding 3
    Идентификатор кодека : A_AC3
    Продолжительность : 1 ч. 52 м.
    Вид битрейта : Постоянный
    Битрейт : 192 Кбит/сек
    Каналы : 2 канала
    Расположение каналов : Front: L R
    Частота : 48, 0 КГц
    Частота кадров : 31, 250 кадров/сек (1536 SPF)
    Битовая глубина : 16 бит
    Метод сжатия : С потерями
    Размер потока : 154 Мбайт (0%)
    Заголовок : | Дублированный |
    Язык : Ukrainian
    ServiceKind/String : Complete Main
    Default : Нет
    Forced : Нет
    Аудио #3
    Идентификатор : 4
    Формат : DTS
    Формат/Информация : Digital Theater Systems
    Профиль формата : MA/Core
    Идентификатор кодека : A_DTS
    Продолжительность : 1 ч. 52 м.
    Вид битрейта : Переменный/Постоянный
    Битрейт : 5154 Кбит/сек/1509 Кбит/сек
    Каналы : 8 каналов/6 каналов
    Расположение каналов : Front: L C R, Side: L R, Back: L R, LFE/Front: L C R, Side: L R, LFE
    Частота : 48, 0 КГц
    Частота кадров : 93, 750 кадра/сек (512 SPF)
    Битовая глубина : 24 бит
    Метод сжатия : Без потерь/Lossy
    Размер потока : 4, 04 Гбайт (7%)
    Заголовок : | AVO, А.Гаврилов |
    Язык : Russian
    Default : Нет
    Forced : Нет
    Аудио #4
    Идентификатор : 5
    Формат : DTS
    Формат/Информация : Digital Theater Systems
    Профиль формата : MA/Core
    Идентификатор кодека : A_DTS
    Продолжительность : 1 ч. 52 м.
    Вид битрейта : Переменный/Постоянный
    Битрейт : 4625 Кбит/сек/1509 Кбит/сек
    Каналы : 8 каналов/6 каналов
    Расположение каналов : Front: L C R, Side: L R, Back: L R, LFE/Front: L C R, Side: L R, LFE
    Частота : 48, 0 КГц
    Частота кадров : 93, 750 кадра/сек (512 SPF)
    Битовая глубина : 24 бит
    Метод сжатия : Без потерь/Lossy
    Размер потока : 3, 62 Гбайт (6%)
    Заголовок : | AVO, Ю.Живов |
    Язык : Russian
    Default : Нет
    Forced : Нет
    Аудио #5
    Идентификатор : 6
    Формат : TrueHD
    Профиль формата : TrueHD+Atmos/TrueHD
    Идентификатор кодека : A_TRUEHD
    Продолжительность : 1 ч. 52 м.
    Вид битрейта : Переменный
    Битрейт : 5080 Кбит/сек
    Максимальный битрейт : 8040 Кбит/сек
    Каналы : Object Based/8 каналов
    Расположение каналов : Object Based/Front: L C R, Side: L R, Back: L R, LFE
    Частота : /48, 0 КГц
    Частота кадров : 1200, 000 кадров/сек (40 SPF)
    Метод сжатия : Без потерь
    Размер потока : 3, 98 Гбайт (7%)
    Заголовок : | Original |
    Язык : English
    Default : Нет
    Forced : Нет
    Аудио #6
    Идентификатор : 7
    Формат : AC-3
    Формат/Информация : Audio Coding 3
    Идентификатор кодека : A_AC3
    Продолжительность : 1 ч. 52 м.
    Вид битрейта : Постоянный
    Битрейт : 640 Кбит/сек
    Каналы : 6 каналов
    Расположение каналов : Front: L C R, Side: L R, LFE
    Частота : 48, 0 КГц
    Частота кадров : 31, 250 кадров/сек (1536 SPF)
    Битовая глубина : 16 бит
    Метод сжатия : С потерями
    Размер потока : 513 Мбайт (1%)
    Заголовок : | Original, AC3 Core |
    Язык : English
    ServiceKind/String : Complete Main
    Default : Нет
    Forced : Нет
    Текст #1
    Идентификатор : 8
    Формат : UTF-8
    Идентификатор кодека : S_TEXT/UTF8
    Идентификатор кодека/Информация : UTF-8 Plain Text
    Продолжительность : 1 ч. 41 м.
    Битрейт : 0 бит/сек
    ElementCount : 16
    Размер потока : 625 байт (0%)
    Заголовок : Forced
    Язык : Russian
    Default : Да
    Forced : Да
    Текст #2
    Идентификатор : 9
    Формат : UTF-8
    Идентификатор кодека : S_TEXT/UTF8
    Идентификатор кодека/Информация : UTF-8 Plain Text
    Продолжительность : 1 ч. 43 м.
    Битрейт : 95 бит/сек
    ElementCount : 1371
    Размер потока : 72, 5 Кбайт (0%)
    Заголовок : Full
    Язык : Russian
    Default : Нет
    Forced : Нет
    Текст #3
    Идентификатор : 10
    Формат : UTF-8
    Идентификатор кодека : S_TEXT/UTF8
    Идентификатор кодека/Информация : UTF-8 Plain Text
    Продолжительность : 45 м. 10 с.
    Битрейт : 0 бит/сек
    ElementCount : 3
    Размер потока : 55, 0 байт (0%)
    Заголовок : Forced
    Язык : Ukrainian
    Default : Нет
    Forced : Да
    Текст #4
    Идентификатор : 11
    Формат : UTF-8
    Идентификатор кодека : S_TEXT/UTF8
    Идентификатор кодека/Информация : UTF-8 Plain Text
    Продолжительность : 1 ч. 50 м.
    Битрейт : 79 бит/сек
    ElementCount : 1526
    Размер потока : 64, 4 Кбайт (0%)
    Заголовок : Full
    Язык : Ukrainian
    Default : Нет
    Forced : Нет
    Текст #5
    Идентификатор : 12
    Формат : UTF-8
    Идентификатор кодека : S_TEXT/UTF8
    Идентификатор кодека/Информация : UTF-8 Plain Text
    Продолжительность : 1 ч. 42 м.
    Битрейт : 65 бит/сек
    ElementCount : 1508
    Размер потока : 49, 4 Кбайт (0%)
    Заголовок : Full
    Язык : English
    Default : Нет
    Forced : Нет
    Текст #6
    Идентификатор : 13
    Формат : UTF-8
    Идентификатор кодека : S_TEXT/UTF8
    Идентификатор кодека/Информация : UTF-8 Plain Text
    Продолжительность : 1 ч. 43 м.
    Битрейт : 74 бит/сек
    ElementCount : 1879
    Размер потока : 56, 7 Кбайт (0%)
    Заголовок : SDH
    Язык : English
    Default : Нет
    Forced : Нет
    Меню
    00: 00: 00.000 : en: Chapter 1
    00: 05: 55.563 : en: Chapter 2
    00: 12: 18.571 : en: Chapter 3
    00: 18: 53.507 : en: Chapter 4
    00: 26: 38.096 : en: Chapter 5
    00: 33: 14.492 : en: Chapter 6
    00: 38: 56.459 : en: Chapter 7
    00: 44: 11.190 : en: Chapter 8
    00: 49: 40.310 : en: Chapter 9
    00: 55: 40.628 : en: Chapter 10
    01: 02: 01.259 : en: Chapter 11
    01: 04: 51.971 : en: Chapter 12
    01: 14: 32.759 : en: Chapter 13
    01: 21: 18.415 : en: Chapter 14
    01: 28: 10.159 : en: Chapter 15
    01: 36: 58.229 : en: Chapter 16
    01: 41: 52.022 : en: Chapter 17
    01: 46: 20.874 : en: Chapter 18
    YouTube

    Скриншоты для ознакомления


    Релизы фильма Черепашки-ниндзя 2/Teenage Mutant Ninja Turtles: Out of the Shadows на NNM Club
    Время раздачи: с 9: 00 до 23: 00


    Онлайн видео Черепашки-ниндзя 2



    Черепашки-ниндзя 2/Teenage Mutant Ninja Turtles: Out of the Shadows (2016) UHD BDRemux [H.265/2160p] [4K, HDR, 10-bit]
    Рейтинг →
     (голосов: 1, оценка 3/5, голосовать можно 1 раз )

    Другие торренты по теме:

  • Черепашки-ниндзя / Teenage Mutant Ninja Turtles (2014) CamRip [Proper]
  • Черепашки-ниндзя / Teenage Mutant Ninja Turtles (2014) HDTVRip [H.264 / 720p-LQ] [Трейлер]
  • Черепашки-ниндзя / Teenage Mutant Ninja Turtles (2014) HDTVRip [Звук с CamRip] скачать через торрент бесплатно
  • Черепашки-ниндзя / Teenage Mutant Ninja Turtles (2014) HDTVRip [720p] [Звук с CamRip] скачать через торрент бесплатно
  • Черепашки-ниндзя / Teenage Mutant Ninja Turtles (2014) HDTVRip [720p] [Звук с CamRip] скачать через торрент бесплатно
  • Черепашки-ниндзя / Teenage Mutant Ninja Turtles (2014) HDTVRip [H.264] [Звук с CamRip] скачать через торрент бесплатно
  • Черепашки-ниндзя / Teenage Mutant Ninja Turtles (2014) HDTVRip [H.264] [Звук с CamRip] скачать через торрент бесплатно
  • Черепашки-ниндзя / Teenage Mutant Ninja Turtles (2014) HDTVRip [H.264] [Звук с CamRip] скачать через торрент бесплатно


    • Комментарии (0):

      Информация

      Информация

        Посетители, находящиеся в группе Гости, не могут оставлять комментарии в данной новости.

        ↓ Меню




        ↓ Опрос

        Вы добавили сайт в закладки?
        Да
        Нет


        Top 10 за месяц (Фильмы)