.
Авторизация | Регистрация
Хочешь лучшие торренты? Добавь свой email!
Добавить

Торрент скачать бесплатно

  • support: webmaster@btracker.org
» » Излом времени / A Wrinkle in Time (2018) BDRemux [H.264 / 1080p] [EN / EN, Fr, Sp Sub] торрент скачать бесплатно


    Излом времени / A Wrinkle in Time (2018) BDRemux [H.264 / 1080p] [EN / EN, Fr, Sp Sub] торрент скачать бесплатно

    Опубликовал: Админ | Дата: 29-05-2018, 05:00 | .torrent скачали: 2

    Излом времени / A Wrinkle in Time (2018) BDRemux [H.264 / 1080p] [EN / EN, Fr, Sp Sub]Производство: США/Walt Disney Pictures, Whitaker Entertainment
    Жанр: фантастика, фэнтези, приключения, семейный
    Режиссер: Ава ДюВерней

    Актеры
    Сторм Рейд, Опра Уинфри, Риз Уизерспун, Минди Кейлинг, Леви Миллер, Дерик Маккейб, Крис Пайн, Гугу Эмбата-Ро, Зак Галифианакис, Майкл Пенья, Андре Холлэнд, Роуэн Бланчард

    Описание

    Юная Мэг вместе с младшим братом и школьным приятелем решает отправиться на поиски своего отца, учёного-физика, пропавшего в ходе научного эксперимента. Найти его предстоит не в привычном мире, а в таинственных изломах времени и пространства, где понятие реальности относительно и ничему нельзя верить! Выбраться из фантастических миров и победить тьму, которая распространяется по вселенной, можно, только изучив себя и приняв свои недостатки.

    Возраст: 6+ (зрителям, достигшим 6 лет)
    Рейтинг MPAA: PG (рекомендуется присутствие родителей)
    Продолжительность: 01: 49: 37
    Качество видео: BDRemux
    Перевод: Отсутствует
    Язык озвучки: Английский
    Субтитры: английские, французские, испанские
    Видео: AVC/H.264, 1920x1080 (16: 9), 31556 kbps, 23.976 fps, 0.635 bpp
    Аудио №1: DTS-HD MA, 8 ch, 4756 kbps - английский
    Аудио №2: AC3, 2 ch, 320 kbps - английский
    Аудио №3: AC3, 2 ch, 192 kbps - английский
    General
    Unique ID A.Wrinkle.In.Time.2018.REMUX.1080p.BluRay.AVC.DTS-HD.MA.7.1-iFT.mkv
    Format : Matroska
    Format version : Version 4/Version 2
    File size : 28.3 GiB
    Duration : 1 h 49 min
    Overall bit rate mode : Variable
    Overall bit rate : 36.9 Mb/s
    Encoded date : UTC 2018-05-28 09: 30: 00
    Writing application : mkvmerge v22.0.0 (\'At The End Of The World\') 64-bit
    Writing library : libebml v1.3.5 + libmatroska v1.4.8
    Video
    ID : 1
    Format : AVC
    Format/Info : Advanced Video Codec
    Format profile : High@L4.1
    Format settings, CABAC : Yes
    Format settings, ReFrames : 4 frames
    Codec ID : V_MPEG4/ISO/AVC
    Duration : 1 h 49 min
    Bit rate mode : Variable
    Bit rate : 31.6 Mb/s
    Maximum bit rate : 34.0 Mb/s
    Width : 1 920 pixels
    Height : 1 080 pixels
    Display aspect ratio : 16: 9
    Frame rate mode : Constant
    Frame rate : 23.976 (24000/1001) FPS
    Color space : YUV
    Chroma subsampling : 4: 2: 0
    Bit depth : 8 bits
    Scan type : Progressive
    Bits/(Pixel*Frame) : 0.635
    Stream size : 24.2 GiB (85%)
    Default : Yes
    Forced : No
    Audio #1
    ID : 2
    Format : DTS
    Format/Info : Digital Theater Systems
    Format profile : MA/Core
    Mode : 16
    Format settings, Endianness : Big
    Codec ID : A_DTS
    Duration : 1 h 49 min
    Bit rate mode : Variable/Constant
    Bit rate : 4 757 kb/s/1 509 kb/s
    Channel(s) : 8 channels/6 channels
    Channel positions : Front: L C R, Side: L R, Back: L R, LFE/Front: L C R, Side: L R, LFE
    Sampling rate : 48.0 kHz
    Frame rate : 93.750 FPS (512 spf)
    Bit depth : 24 bits
    Compression mode : Lossless/Lossy
    Stream size : 3.64 GiB (13%)
    Language : English
    Default : Yes
    Forced : No
    Audio #2
    ID : 3
    Format : AC-3
    Format/Info : Audio Coding 3
    Mode extension : CM (complete main)
    Format settings, Endianness : Big
    Codec ID : A_AC3
    Duration : 1 h 49 min
    Bit rate mode : Constant
    Bit rate : 320 kb/s
    Channel(s) : 2 channels
    Channel positions : Front: L R
    Sampling rate : 48.0 kHz
    Frame rate : 31.250 FPS (1536 spf)
    Compression mode : Lossy
    Stream size : 251 MiB (1%)
    Language : English
    Default : No
    Forced : No
    Audio #3
    ID : 4
    Format : AC-3
    Format/Info : Audio Coding 3
    Mode extension : CM (complete main)
    Format settings, Endianness : Big
    Codec ID : A_AC3
    Duration : 1 h 49 min
    Bit rate mode : Constant
    Bit rate : 192 kb/s
    Channel(s) : 2 channels
    Channel positions : Front: L R
    Sampling rate : 48.0 kHz
    Frame rate : 31.250 FPS (1536 spf)
    Compression mode : Lossy
    Stream size : 151 MiB (1%)
    Language : English
    Default : No
    Forced : No
    Text #1
    ID : 5
    Format : PGS
    Muxing mode : zlib
    Codec ID : S_HDMV/PGS
    Codec ID/Info : Picture based subtitle format used on BDs/HD-DVDs
    Duration : 1 h 46 min
    Bit rate : 35.4 kb/s
    Count of elements : 3206
    Stream size : 27.0 MiB (0%)
    Language : English
    Default : Yes
    Forced : No
    Text #2
    ID : 6
    Format : PGS
    Muxing mode : zlib
    Codec ID : S_HDMV/PGS
    Codec ID/Info : Picture based subtitle format used on BDs/HD-DVDs
    Duration : 1 h 42 min
    Bit rate : 31.2 kb/s
    Count of elements : 2646
    Stream size : 22.8 MiB (0%)
    Language : French
    Default : No
    Forced : No
    Text #3
    ID : 7
    Format : PGS
    Muxing mode : zlib
    Codec ID : S_HDMV/PGS
    Codec ID/Info : Picture based subtitle format used on BDs/HD-DVDs
    Duration : 1 h 40 min
    Bit rate : 28.4 kb/s
    Count of elements : 2600
    Stream size : 20.4 MiB (0%)
    Language : Spanish
    Default : No
    Forced : No
    Text #4
    ID : 8
    Format : PGS
    Muxing mode : zlib
    Codec ID : S_HDMV/PGS
    Codec ID/Info : Picture based subtitle format used on BDs/HD-DVDs
    Duration : 1 h 47 min
    Bit rate : 81.1 kb/s
    Count of elements : 4272
    Stream size : 62.2 MiB (0%)
    Language : English
    Default : No
    Forced : No
    Text #5
    ID : 9
    Format : PGS
    Muxing mode : zlib
    Codec ID : S_HDMV/PGS
    Codec ID/Info : Picture based subtitle format used on BDs/HD-DVDs
    Duration : 1 h 41 min
    Bit rate : 76.4 kb/s
    Count of elements : 4130
    Stream size : 55.3 MiB (0%)
    Language : French
    Default : No
    Forced : No
    Text #6
    ID : 10
    Format : PGS
    Muxing mode : zlib
    Codec ID : S_HDMV/PGS
    Codec ID/Info : Picture based subtitle format used on BDs/HD-DVDs
    Duration : 1 h 41 min
    Bit rate : 72.1 kb/s
    Count of elements : 4130
    Stream size : 52.2 MiB (0%)
    Language : Spanish
    Default : No
    Forced : No
    Text #7
    ID : 11
    Format : PGS
    Muxing mode : zlib
    Codec ID : S_HDMV/PGS
    Codec ID/Info : Picture based subtitle format used on BDs/HD-DVDs
    Duration : 3 min
    Bit rate : 7 969 b/s
    Count of elements : 40
    Stream size : 186 KiB (0%)
    Language : French
    Default : No
    Forced : No
    Text #8
    ID : 12
    Format : PGS
    Muxing mode : zlib
    Codec ID : S_HDMV/PGS
    Codec ID/Info : Picture based subtitle format used on BDs/HD-DVDs
    Duration : 1 h 35 min
    Bit rate : 68 b/s
    Count of elements : 4
    Stream size : 47.8 KiB (0%)
    Language : Spanish
    Default : No
    Forced : No
    Menu
    00: 00: 00.000 : en: 00: 00: 00.000
    00: 09: 39.871 : en: 00: 09: 39.871
    00: 13: 46.868 : en: 00: 13: 46.868
    00: 18: 04.083 : en: 00: 18: 04.083
    00: 21: 28.287 : en: 00: 21: 28.287
    00: 28: 32.502 : en: 00: 28: 32.502
    00: 39: 14.811 : en: 00: 39: 14.811
    00: 48: 41.252 : en: 00: 48: 41.252
    00: 54: 03.198 : en: 00: 54: 03.198
    01: 03: 04.531 : en: 01: 03: 04.531
    01: 09: 48.267 : en: 01: 09: 48.267
    01: 19: 03.197 : en: 01: 19: 03.197
    01: 29: 05.549 : en: 01: 29: 05.549
    01: 40: 03.497 : en: 01: 40: 03.497


    Скриншоты для ознакомления



    Все одноименные релизы в Клубе
    Время раздачи: с 13: 00 до 23: 00


    Онлайн видео Излом времени



    Излом времени/A Wrinkle in Time (2018) BDRemux [H.264/1080p] [EN/EN, Fr, Sp Sub]
    Рейтинг →
     (голосов: 1, оценка 4/5, голосовать можно 1 раз )

    Другие торренты по теме:

  • Излом времени / A Wrinkle in Time (2018) BDRip [H.264 / 1080p] [UKR, ENG / EN Sub]
  • Излом времени / A Wrinkle in Time (2018) BDRip [H.264] [UKR, ENG / EN Sub]
  • Излом времени / A Wrinkle in Time (2018) BDRip [UKR, ENG]
  • Излом времени / A Wrinkle in Time (2018) HDRip
  • Излом времени / A Wrinkle in Time (2018) BDRip [H.264 / 1080p]
  • Излом времени / A Wrinkle in Time (2018) UHD BDRemux [H.265 / 2160p] [4K, HDR, 10-bit]
  • Излом времени / A Wrinkle in Time (2018) BDRip [720p] ATV
  • Излом времени / A Wrinkle in Time (2018) BDRip [1080p] ATV


    • Комментарии (0):

      Информация

      Информация

        Посетители, находящиеся в группе Гости, не могут оставлять комментарии в данной новости.

        ↓ Меню




        ↓ Опрос

        Вы добавили сайт в закладки?
        Да
        Нет


        Top 10 за месяц (Фильмы)