.
Авторизация | Регистрация
Хочешь лучшие торренты? Добавь свой email!
Добавить

Торрент скачать бесплатно

  • support: webmaster@btracker.org
» » Матрица / The Matrix (1999) BDRip [H.264 / 1080p][REMASTERED] торрент скачать бесплатно


    Матрица / The Matrix (1999) BDRip [H.264 / 1080p][REMASTERED] торрент скачать бесплатно

    Опубликовал: Админ | Дата: 29-05-2018, 05:00 | .torrent скачали: 0

    Матрица / The Matrix (1999) BDRip [H.264 / 1080p][REMASTERED]Производство: США, Warner Bros. Pictures
    Жанр: Фантастика, Боевик
    Режиссер: Энди Вачовски, Лана Вачовски

    Актеры
    Киану Ривз, Лоренс Фишбёрн, Кэрри-Энн Мосс, Хьюго Уивинг, Глория Фостер, Джо Пантольяно, Маркус Чонг, Джулиан Араханга, Мэтт Доран, Белинда МакКлори

    Описание

    Что есть реальность? Есть ли у человека выбор? Действительно ли мы живём или только представляем, что живём, а на самом деле жив только один человеческий орган - мозг, да и тот пребывает в вечном сне. Если это так, то способны ли мы самостоятельно пробудиться или потребуется помощь, возможно, извне? Кто или что и с какой целью усыпило миллиарды людей? Ответы на эти и многие другие вопросы Нео, известный также как Томас Андерсон, получит от легендарного и неуловимого незнакомца Морфиуса. Он вытащит Нео из цепких лап Матрицы, расскажет, что произошло с Землёй в двадцать первом веке, научит многому и покажет казавшееся невозможным доселе... Ведь Морфиус верит, что Нео - Избранный, освободитель человечества и единственный, кто поможет выиграть в неравной схватке с поработившими людей, но созданными ими самими машинами.

    Возраст: 16+ (зрителям, достигшим 16 лет)
    Рейтинг MPAA: R (лицам до 17 лет обязательно присутствие взрослого)
    Релиз от: HDReactor
    Продолжительность: 02: 16: 21
    Качество видео: BDRip
    Перевод: Дублированный
    Субтитры: Русские, английские
    Видео: AVC/H.264, 1920х800, ~11.1 Mbps
    Аудио #1: Русский, AC3, 6 ch, 640 Kbps
    Аудио #2: Английский, AC3, 6 ch, 448 Kbps

    Полное имя : J: The.Matrix.1999.REMASTERED.BDRip.1080p.HDReactor.mkv
    Формат : Matroska
    Версия формата : Version 2
    Размер файла : 11, 6 Гбайт
    Продолжительность : 2 ч. 16 м.
    Общий поток : 12, 2 Мбит/сек
    Название фильма : ~V ad~
    Дата кодирования : UTC 2018-05-27 11: 19: 07
    Программа кодирования : mkvmerge v6.5.0 (\'Isn\'t she lovely\') built on Oct 20 2013 12: 50: 05
    Библиотека кодирования : libebml v1.3.0 + libmatroska v1.4.1
    Обложка : Yes
    Attachments : cover.jpg
    Видео
    Идентификатор : 1
    Формат : AVC
    Формат/Информация : Advanced Video Codec
    Профиль формата : High@L4.1
    Настройки формата : CABAC/5 Ref Frames
    Параметр CABAC формата : Да
    Параметр RefFrames формата : 5 кадров
    Идентификатор кодека : V_MPEG4/ISO/AVC
    Продолжительность : 2 ч. 16 м.
    Битрейт : 11, 1 Мбит/сек
    Ширина : 1920 пикселей
    Высота : 800 пикселей
    Соотношение сторон : 2, 40: 1
    Режим частоты кадров : Постоянный
    Частота кадров : 23, 976 (24000/1001) кадра/сек
    Цветовое пространство : YUV
    Субдискретизация насыщенности : 4: 2: 0
    Битовая глубина : 8 бит
    Тип развёртки : Прогрессивная
    Бит/(Пиксели*Кадры) : 0.303
    Размер потока : 10, 4 Гбайт (89%)
    Заголовок : ~V~
    Библиотека кодирования : x264 core 155 r2901 7d0ff22
    Настройки программы : cabac=1/ref=5/deblock=1: -3: -3/analyse=0x3: 0x133/me=umh/subme=11/psy=1/psy_rd=1.00: 0.00/mixed_ref=1/me_range=32/chroma_me=1/trellis=2/8x8dct=1/cqm=0/deadzone=21, 11/fast_pskip=0/chroma_qp_offset=-2/threads=12/lookahead_threads=1/sliced_threads=0/nr=0/decimate=0/interlaced=0/bluray_compat=0/constrained_intra=0/bframes=9/b_pyramid=2/b_adapt=2/b_bias=0/direct=3/weightb=1/open_gop=0/weightp=2/keyint=240/keyint_min=23/scenecut=40/intra_refresh=0/rc=2pass/mbtree=0/bitrate=11142/ratetol=1.0/qcomp=0.66/qpmin=0/qpmax=69/qpstep=4/cplxblur=20.0/qblur=0.5/ip_ratio=1.30/pb_ratio=1.30/aq=3: 0.80
    Язык : Английский
    Default : Да
    Forced : Нет
    Аудио #1
    Идентификатор : 2
    Формат : AC-3
    Формат/Информация : Audio Coding 3
    Идентификатор кодека : A_AC3
    Продолжительность : 2 ч. 16 м.
    Вид битрейта : Постоянный
    Битрейт : 640 Кбит/сек
    Каналы : 6 каналов
    Расположение каналов : Front: L C R, Side: L R, LFE
    Частота : 48, 0 КГц
    Частота кадров : 31, 250 кадров/сек (1536 SPF)
    Битовая глубина : 16 бит
    Метод сжатия : С потерями
    Размер потока : 624 Мбайт (5%)
    Заголовок : Dub
    Язык : Русский
    Service Kind : Complete Main
    Default : Да
    Forced : Нет
    Аудио #2
    Идентификатор : 3
    Формат : AC-3
    Формат/Информация : Audio Coding 3
    Идентификатор кодека : A_AC3
    Продолжительность : 2 ч. 16 м.
    Вид битрейта : Постоянный
    Битрейт : 448 Кбит/сек
    Каналы : 6 каналов
    Расположение каналов : Front: L C R, Side: L R, LFE
    Частота : 48, 0 КГц
    Частота кадров : 31, 250 кадров/сек (1536 SPF)
    Битовая глубина : 16 бит
    Метод сжатия : С потерями
    Размер потока : 437 Мбайт (4%)
    Язык : Английский
    Service Kind : Complete Main
    Default : Нет
    Forced : Нет
    Текст #1
    Идентификатор : 4
    Формат : UTF-8
    Идентификатор кодека : S_TEXT/UTF8
    Идентификатор кодека/Информация : UTF-8 Plain Text
    Заголовок : Full
    Язык : Русский
    Default : Нет
    Forced : Нет
    Текст #2
    Идентификатор : 5
    Формат : UTF-8
    Идентификатор кодека : S_TEXT/UTF8
    Идентификатор кодека/Информация : UTF-8 Plain Text
    Заголовок : Full
    Язык : Английский
    Default : Нет
    Forced : Нет
    Меню
    00: 00: 00.000 : en: Trinity in a Jam
    00: 03: 26.956 : en: Impossible Pursuit
    00: 06: 36.813 : en: Follow Instructions
    00: 09: 43.833 : en: The Question
    00: 11: 59.468 : en: They\'re Coming for You
    00: 16: 48.590 : en: Unable to Speak
    00: 21: 34.710 : en: Getting the Bug Out
    00: 25: 09.758 : en: Morpheus\' Proposal
    00: 28: 52.313 : en: Down the Rabbit Hole
    00: 32: 26.361 : en: Slimy Rebirth
    00: 35: 23.037 : en: Nebuchadnezzar\'s Crew
    00: 38: 42.069 : en: The Real World
    00: 44: 23.744 : en: The Search Is Over
    00: 46: 34.708 : en: Training Begins
    00: 48: 59.019 : en: Morpheus/Neo Matchup
    00: 53: 32.459 : en: First Jump
    00: 56: 33.306 : en: The Gatekeepers
    00: 59: 02.455 : en: Running Silent and Deep
    01: 01: 09.749 : en: Dealing for Bliss
    01: 05: 17.663 : en: Off to See the Oracle
    01: 07: 47.980 : en: There Is No Spoon
    01: 12: 34.600 : en: Choices...and a Cookie
    01: 17: 50.749 : en: Glitch in the Matrix
    01: 21: 04.276 : en: One Left Behide
    01: 25: 06.518 : en: Heroes Unplugged
    01: 29: 46.297 : en: Cypher\'s Burnout
    01: 31: 28.733 : en: Matters of Belief
    01: 37: 27.091 : en: Virus to Be Cured
    01: 41: 06.143 : en: Lobby Shooting Spree
    01: 44: 21.505 : en: Dodge This
    01: 47: 01.665 : en: Gotcha
    01: 50: 19.696 : en: Rooftop Rescue
    01: 52: 57.854 : en: Subway Showdown
    01: 56: 38.074 : en: My Name Is Neo
    01: 58: 50.540 : en: Sentinels Attack
    02: 02: 28.591 : en: He Is the One
    02: 05: 42.785 : en: Final Connections
    02: 08: 47.970 : en: End Credits (Wake Up Rock Is Dead)

    Скриншоты для ознакомления





    Все одноименные релизы в Клубе
    Время раздачи: 24/7 (до появления первых 3-5 скачавших)


    Онлайн видео Матрица



    Матрица/The Matrix (1999) BDRip [H.264/1080p][REMASTERED]
    Рейтинг →
     (голосов: 1, оценка 4/5, голосовать можно 1 раз )

    Другие торренты по теме:

  • Armitage III: Dual Matrix | Armitage: Dual-Matrix | Армитаж: Двойная матрица [2002, MV] DVDRip 480p raw + eng
  • Матрица / The Matrix (1999) BDRip [H.264 / 1080p-LQ] скачать через торрент бесплатно
  • Матрица: Перезагрузка / The Matrix Reloaded (2003) BDRip [H.264 / 1080p-LQ]
  • Матрица: Революция / The Matrix Revolutions (2003) BDRip [H.264 / 1080p-LQ] скачать через торрент бесплатно
  • Матрица: Трилогия / The Matrix: Trilogy (1999,2003) BDRip [H.264] скачать через торрент бесплатно
  • Матрица / The Matrix (1999-2003) BDRip [1080p] [Трилогия] скачать через торрент бесплатно
  • Матрица: Революция / The Matrix Revolutions (2003) BDRip [H.264 / 720p] скачать через торрент бесплатно
  • Матрица: Перезагрузка / The Matrix Reloaded (2003) BDRip [H.264 / 720p] скачать через торрент бесплатно


    • Комментарии (0):

      Информация

      Информация

        Посетители, находящиеся в группе Гости, не могут оставлять комментарии в данной новости.

        ↓ Меню




        ↓ Опрос

        Вы добавили сайт в закладки?
        Да
        Нет


        Top 10 за месяц (Фильмы)