.
Авторизация | Регистрация
Хочешь лучшие торренты? Добавь свой email!
Добавить

Торрент скачать бесплатно

  • support: webmaster@btracker.org
» » Опасный бизнес / Gringo (2018) BDRemux [H.264 / 1080p] [EN / EN Sub] торрент скачать бесплатно


    Опасный бизнес / Gringo (2018) BDRemux [H.264 / 1080p] [EN / EN Sub] торрент скачать бесплатно

    Опубликовал: Админ | Дата: 29-05-2018, 05:00 | .torrent скачали: 0

    Опасный бизнес / Gringo (2018) BDRemux [H.264 / 1080p] [EN / EN Sub]Производство: Австралия, США/Amazon Studios, Blue-Tongue Films, Denver and Delilah Productions, Picrow
    Жанр: боевик, комедия, криминал
    Режиссер: Нэш Эдгертон

    Актеры
    Джоэл Эдгертон, Шарлиз Терон, Дэвид Ойелоуо, Тэнди Ньютон, Башир Салахуддин, Гленн Кубота, Мелони Диас, Аманда Сайфред, Гарри Тредэвэй, Тео Таплитц, Пэрис Джексон, Юл Васкес

    Описание

    Дерзкая длинноногая блондинка - она идеально подходит для опасного бизнеса. Однажды одному из ее подчиненных становится известна уникальная формула, за которой гоняется весь мир. Он решает инсценировать собственное похищение и потребовать выкуп у компании. Лучше этому умнику не рассчитывать на помощь своей эффектной начальницы, ведь для корпорации он предпочтительнее мертвый, чем живой.

    Возраст: 18+ (зрителям, достигшим 18 лет. запрещено для детей)
    Рейтинг MPAA: R (лицам до 17 лет обязательно присутствие взрослого)
    Продолжительность: 01: 50: 38
    Качество видео: BDRemux
    Перевод: Отсутствует
    Язык озвучки: Английский
    Субтитры: английские
    Видео: AVC/H.264, 1920x1080 (16: 9), 34948 kbps, 23.976 fps, 0.703 bpp
    Аудио №1: DTS-HD MA, 6 ch, 3450 kbps (Core: 6 ch, 1509 kbps) - английский
    Аудио №2: AC3, 2 ch, 192 kbps - английский
    General
    Unique ID Gringo.2018.REMUX.BluRay.1080p.AVC.DTS-HD.MA5.1-iFT.mkv
    Format : Matroska
    Format version : Version 4/Version 2
    File size : 29.8 GiB
    Duration : 1 h 50 min
    Overall bit rate mode : Variable
    Overall bit rate : 38.6 Mb/s
    Encoded date : UTC 2018-05-28 10: 15: 57
    Writing application : mkvmerge v22.0.0 (\'At The End Of The World\') 64-bit
    Writing library : libebml v1.3.5 + libmatroska v1.4.8
    Video
    ID : 1
    Format : AVC
    Format/Info : Advanced Video Codec
    Format profile : High@L4.1
    Format settings, CABAC : Yes
    Format settings, ReFrames : 4 frames
    Codec ID : V_MPEG4/ISO/AVC
    Duration : 1 h 50 min
    Bit rate mode : Variable
    Bit rate : 34.9 Mb/s
    Maximum bit rate : 37.0 Mb/s
    Width : 1 920 pixels
    Height : 1 080 pixels
    Display aspect ratio : 16: 9
    Frame rate mode : Constant
    Frame rate : 23.976 (24000/1001) FPS
    Color space : YUV
    Chroma subsampling : 4: 2: 0
    Bit depth : 8 bits
    Scan type : Progressive
    Bits/(Pixel*Frame) : 0.703
    Stream size : 27.0 GiB (91%)
    Default : Yes
    Forced : No
    Audio #1
    ID : 2
    Format : DTS
    Format/Info : Digital Theater Systems
    Format profile : MA/Core
    Mode : 16
    Format settings, Endianness : Big
    Codec ID : A_DTS
    Duration : 1 h 50 min
    Bit rate mode : Variable/Constant
    Bit rate : 3 450 kb/s/1 509 kb/s
    Channel(s) : 6 channels
    Channel positions : Front: L C R, Side: L R, LFE
    Sampling rate : 48.0 kHz
    Frame rate : 93.750 FPS (512 spf)
    Bit depth : 24 bits
    Compression mode : Lossless/Lossy
    Stream size : 2.67 GiB (9%)
    Default : Yes
    Forced : No
    Audio #2
    ID : 3
    Format : AC-3
    Format/Info : Audio Coding 3
    Format profile : Dolby Digital
    Mode extension : CM (complete main)
    Format settings, Endianness : Big
    Codec ID : A_AC3
    Duration : 1 h 50 min
    Bit rate mode : Constant
    Bit rate : 192 kb/s
    Channel(s) : 2 channels
    Channel positions : Front: L R
    Sampling rate : 48.0 kHz
    Frame rate : 31.250 FPS (1536 spf)
    Compression mode : Lossy
    Stream size : 152 MiB (0%)
    Default : No
    Forced : No
    Text
    ID : 4
    Format : PGS
    Muxing mode : zlib
    Codec ID : S_HDMV/PGS
    Codec ID/Info : Picture based subtitle format used on BDs/HD-DVDs
    Duration : 1 h 42 min
    Bit rate : 42.1 kb/s
    Count of elements : 3083
    Stream size : 30.7 MiB (0%)
    Default : Yes
    Forced : No
    Menu
    00: 00: 00.000 : en: 00: 00: 00.000
    00: 02: 29.024 : en: 00: 02: 29.024
    00: 08: 36.808 : en: 00: 08: 36.808
    00: 14: 49.388 : en: 00: 14: 49.388
    00: 19: 43.057 : en: 00: 19: 43.057
    00: 26: 11.195 : en: 00: 26: 11.195
    00: 29: 59.548 : en: 00: 29: 59.548
    00: 34: 12.676 : en: 00: 34: 12.676
    00: 41: 59.600 : en: 00: 41: 59.600
    00: 49: 14.702 : en: 00: 49: 14.702
    00: 57: 12.304 : en: 00: 57: 12.304
    01: 02: 56.940 : en: 01: 02: 56.940
    01: 09: 40.551 : en: 01: 09: 40.551
    01: 16: 20.951 : en: 01: 16: 20.951
    01: 20: 38.125 : en: 01: 20: 38.125
    01: 25: 53.857 : en: 01: 25: 53.857
    01: 29: 14.224 : en: 01: 29: 14.224
    01: 33: 46.704 : en: 01: 33: 46.704
    01: 39: 06.524 : en: 01: 39: 06.524
    01: 43: 28.869 : en: 01: 43: 28.869


    Скриншоты для ознакомления



    Все одноименные релизы в Клубе
    Время раздачи: с 13: 00 до 23: 00


    Онлайн видео Опасный бизнес



    Опасный бизнес/Gringo (2018) BDRemux [H.264/1080p] [EN/EN Sub]
    Рейтинг →
     (голосов: 1, оценка 5/5, голосовать можно 1 раз )

    Другие торренты по теме:

  • Опасный бизнес / Gringo (2018) WEB-DL [H.264 / 1080p-LQ]
  • Опасный бизнес / Gringo (2018) WEB-DL [720p] ATV
  • Опасный бизнес / Gringo (2018) WEB-DL [1080p] ATV
  • Опасный бизнес / Gringo (2018) BDRip [H.264 / 720p]
  • Опасный бизнес / Gringo (2018) WEB-DLRip [576p] iPad
  • Опасный бизнес / Gringo (2018) BDRip
  • Опасный бизнес / Gringo (2018) BDRip [H.264 / 1080p]
  • Опасный бизнес / Gringo (2018) BDRip [H.264 / 720p-LQ]


    • Комментарии (0):

      Информация

      Информация

        Посетители, находящиеся в группе Гости, не могут оставлять комментарии в данной новости.

        ↓ Меню




        ↓ Опрос

        Вы добавили сайт в закладки?
        Да
        Нет


        Top 10 за месяц (Фильмы)