.
Авторизация | Регистрация
Хочешь лучшие торренты? Добавь свой email!
Добавить

Торрент скачать бесплатно

  • support: webmaster@btracker.org
» » Ограбление в ураган / The Hurricane Heist (2018) BDRemux [H.264 / 1080p] [EN / EN, Sp Sub] торрент скачать бесплатно


    Ограбление в ураган / The Hurricane Heist (2018) BDRemux [H.264 / 1080p] [EN / EN, Sp Sub] торрент скачать бесплатно

    Опубликовал: Админ | Дата: 29-05-2018, 05:00 | .torrent скачали: 2

    Ограбление в ураган / The Hurricane Heist (2018) BDRemux [H.264 / 1080p] [EN / EN, Sp Sub]Производство: США/Foresight Unlimited, Signature Pictures, RSVP Entertainment, Windfall Productions, Head Gear Films, Metrol Technology, Lipsync Productions, Double Negative, Dream Team Films, Parkside Pictures, Tadross Media Group
    Жанр: боевик, триллер
    Режиссер: Роб Коэн

    Актеры
    Тоби Кеббелл, Мэгги Грэйс, Райан Квантен, Ралф Айнесон, Мелисса Болона, Бен Кросс, Джэми Эндрю Катлер, Кристиан Райан Контрерас, Эд Бирч, Джеймс Баррискейл

    Описание

    На побережье Америки стремительно надвигается ураган. Тем временем банда воров планирует идеальное ограбление: украсть 600 миллионов долларов из казначейства США, воспользовавшись стихийным бедствием как прикрытием. Но один фактор грабители не учли - честную и подготовленную работницу казначейства. Женщина вовремя объединяется с исследователем ураганов на специализированном бронированном автомобиле, и теперь они - единственные, кто может помешать ворам осуществить план ограбления. Почти единственные, ведь для урагана вне категорий не существует деления на своих и чужих.

    Возраст: 16+ (зрителям, достигшим 16 лет)
    Рейтинг MPAA: PG-13 (детям до 13 лет просмотр нежелателен)
    Продолжительность: 01: 44: 52
    Качество видео: BDRemux
    Перевод: Отсутствует
    Язык озвучки: Английский
    Субтитры: английские, испанские
    Видео: AVC/H.264, 1920x1080 (16: 9), 34322 kbps, 23.976 fps, 0.690 bpp
    Аудио №1: Atmos/TrueHD, 8 ch, 3994 kbps - английский
    Аудио №2: AC3, 6 ch, 640 kbps - английский
    Аудио №3: AC3, 2 ch, 192 kbps - английский
    Аудио №4: AC3, 2 ch, 192 kbps - английский
    General
    Unique ID The.Hurricane.Heist.2018.REMUX.BluRay.1080p.AVC.Atmos.TrueHD7.1-iFT.mkv
    Format : Matroska
    Format version : Version 4/Version 2
    File size : 28.9 GiB
    Duration : 1 h 44 min
    Overall bit rate mode : Variable
    Overall bit rate : 39.4 Mb/s
    Encoded date : UTC 2018-05-28 11: 22: 31
    Writing application : mkvmerge v22.0.0 (\'At The End Of The World\') 64-bit
    Writing library : libebml v1.3.5 + libmatroska v1.4.8
    Video
    ID : 1
    Format : AVC
    Format/Info : Advanced Video Codec
    Format profile : High@L4.1
    Format settings, CABAC : Yes
    Format settings, ReFrames : 4 frames
    Codec ID : V_MPEG4/ISO/AVC
    Duration : 1 h 44 min
    Bit rate mode : Variable
    Bit rate : 34.3 Mb/s
    Maximum bit rate : 36.8 Mb/s
    Width : 1 920 pixels
    Height : 1 080 pixels
    Display aspect ratio : 16: 9
    Frame rate mode : Constant
    Frame rate : 23.976 (24000/1001) FPS
    Color space : YUV
    Chroma subsampling : 4: 2: 0
    Bit depth : 8 bits
    Scan type : Progressive
    Bits/(Pixel*Frame) : 0.690
    Stream size : 25.1 GiB (87%)
    Default : Yes
    Forced : No
    Audio #1
    ID : 2
    Format : Atmos/TrueHD
    Codec ID : A_TRUEHD
    Duration : 1 h 44 min
    Bit rate mode : Variable
    Bit rate : 3 995 kb/s
    Maximum bit rate : 5 466 kb/s
    Channel(s) : Object Based/8 channels
    Channel positions : Object Based/Front: L C R, Side: L R, Back: L R, LFE
    Sampling rate : /48.0 kHz
    Frame rate : 1 200.000 FPS (40 spf)
    Compression mode : Lossless
    Stream size : 2.93 GiB (10%)
    Language : English
    Default : Yes
    Forced : No
    Audio #2
    ID : 3
    Format : AC-3
    Format/Info : Audio Coding 3
    Mode extension : CM (complete main)
    Format settings, Endianness : Big
    Codec ID : A_AC3
    Duration : 1 h 44 min
    Bit rate mode : Constant
    Bit rate : 640 kb/s
    Channel(s) : 6 channels
    Channel positions : Front: L C R, Side: L R, LFE
    Sampling rate : 48.0 kHz
    Frame rate : 31.250 FPS (1536 spf)
    Compression mode : Lossy
    Stream size : 480 MiB (2%)
    Language : English
    Default : No
    Forced : No
    Audio #3
    ID : 4
    Format : AC-3
    Format/Info : Audio Coding 3
    Mode extension : CM (complete main)
    Format settings, Endianness : Big
    Codec ID : A_AC3
    Duration : 1 h 44 min
    Bit rate mode : Constant
    Bit rate : 192 kb/s
    Channel(s) : 2 channels
    Channel positions : Front: L R
    Sampling rate : 48.0 kHz
    Frame rate : 31.250 FPS (1536 spf)
    Compression mode : Lossy
    Stream size : 144 MiB (0%)
    Language : English
    Default : No
    Forced : No
    Audio #4
    ID : 5
    Format : AC-3
    Format/Info : Audio Coding 3
    Mode extension : CM (complete main)
    Format settings, Endianness : Big
    Codec ID : A_AC3
    Duration : 1 h 44 min
    Bit rate mode : Constant
    Bit rate : 192 kb/s
    Channel(s) : 2 channels
    Channel positions : Front: L R
    Sampling rate : 48.0 kHz
    Frame rate : 31.250 FPS (1536 spf)
    Compression mode : Lossy
    Stream size : 144 MiB (0%)
    Language : English
    Default : No
    Forced : No
    Text #1
    ID : 6
    Format : PGS
    Muxing mode : zlib
    Codec ID : S_HDMV/PGS
    Codec ID/Info : Picture based subtitle format used on BDs/HD-DVDs
    Duration : 1 h 43 min
    Bit rate : 37.4 kb/s
    Count of elements : 2566
    Stream size : 27.8 MiB (0%)
    Language : English
    Default : Yes
    Forced : No
    Text #2
    ID : 7
    Format : PGS
    Muxing mode : zlib
    Codec ID : S_HDMV/PGS
    Codec ID/Info : Picture based subtitle format used on BDs/HD-DVDs
    Duration : 1 h 34 min
    Bit rate : 36.3 kb/s
    Count of elements : 2527
    Stream size : 24.5 MiB (0%)
    Language : Spanish
    Default : No
    Forced : No
    Menu
    00: 00: 00.000 : en: 00: 00: 00.000
    00: 05: 41.258 : en: 00: 05: 41.258
    00: 13: 15.253 : en: 00: 13: 15.253
    00: 20: 49.456 : en: 00: 20: 49.456
    00: 25: 48.046 : en: 00: 25: 48.046
    00: 30: 08.974 : en: 00: 30: 08.974
    00: 35: 00.890 : en: 00: 35: 00.890
    00: 40: 40.813 : en: 00: 40: 40.813
    00: 45: 48.162 : en: 00: 45: 48.162
    00: 52: 34.359 : en: 00: 52: 34.359
    01: 00: 22.244 : en: 01: 00: 22.244
    01: 06: 49.881 : en: 01: 06: 49.881
    01: 11: 02.341 : en: 01: 11: 02.341
    01: 17: 43.951 : en: 01: 17: 43.951
    01: 25: 06.351 : en: 01: 25: 06.351
    01: 32: 38.595 : en: 01: 32: 38.595
    01: 43: 04.970 : en: 01: 43: 04.970


    Скриншоты для ознакомления



    Все одноименные релизы в Клубе
    Время раздачи: с 13: 00 до 23: 00


    Онлайн видео Ограбление в ураган



    Ограбление в ураган/The Hurricane Heist (2018) BDRemux [H.264/1080p] [EN/EN, Sp Sub]
    Рейтинг →
     (голосов: 1, оценка 5/5, голосовать можно 1 раз )

    Другие торренты по теме:

  • Ограбление в ураган / The Hurricane Heist (2018) WEB-DLRip [H.264 / 1080p-LQ] [Line, AD]
  • Ограбление в ураган / The Hurricane Heist (2018) WEB-DL [H.264 / 720p-LQ]
  • Ограбление в ураган / The Hurricane Heist (2018) WEB-DL [H.264 / 1080p-LQ]
  • Ограбление в ураган / The Hurricane Heist (2018) WEB-DLRip [H.264]
  • Ограбление в ураган / The Hurricane Heist (2018) WEB-DLRip [H.264]
  • Ограбление в ураган / The Hurricane Heist (2018) WEB-DL [1080p] ATV
  • Ограбление в ураган / The Hurricane Heist (2018) WEB-DL [720p] ATV
  • Ограбление в ураган / The Hurricane Heist (2018) HDRip


    • Комментарии (0):

      Информация

      Информация

        Посетители, находящиеся в группе Гости, не могут оставлять комментарии в данной новости.

        ↓ Меню




        ↓ Опрос

        Вы добавили сайт в закладки?
        Да
        Нет


        Top 10 за месяц (Фильмы)