.
Авторизация | Регистрация
Хочешь лучшие торренты? Добавь свой email!
Добавить

Торрент скачать бесплатно

  • support: webmaster@btracker.org
» » Я заберу твои деньги / Blood Money (2017) BDRip торрент скачать бесплатно


    Я заберу твои деньги / Blood Money (2017) BDRip торрент скачать бесплатно

    Опубликовал: Админ | Дата: 29-05-2018, 05:00 | .torrent скачали: 2

    Я заберу твои деньги / Blood Money (2017) BDRipПроизводство: США
    Жанр: Триллер, Драма, Криминал
    Режиссер: Лаки МакКи

    Актеры
    Джон Кьюсак, Эллар Колтрейн, Уилла Фицджералд, Джейкоб Артист, Нед Беллами, Антонио Джей Белл, Джоанна МакГинли

    Описание

    Находчивый бизнесмен Миллер решает начать новую жизнь на украденные у клиента деньги. Всё шло по плану, пока, по воле случая, деньги не пропадают в лесной глуши и попадают в руки к трём друзьям, путешествующим в этих местах. Миллер не остановится ни перед чем, чтобы вернуть то, что ему принадлежит.

    Возраст: 18+ (зрителям, достигшим 18 лет. запрещено для детей)
    Рейтинг MPAA: R (лицам до 17 лет обязательно присутствие взрослого)
    Дата мировой премьеры: 13 октября 2017
    Дата российской премьеры: 26 апреля 2018, Люксор
    Продолжительность: 01: 25: 27
    Качество видео: BDRip
    Перевод: Дублированный (iTunes)
    Субтитры: Отсутствуют
    Видео: Xvid, 720х304, ~1990 kbps
    Аудио: AC3, 6 ch, 384 kbps

    Общее
    Полное имя : D: ТоррентыЯ.заберу.твои.деньги.2017.D.BDRip.avi
    Формат : AVI
    Формат/Информация : Audio Video Interleave
    Размер файла : 1, 42 Гбайт
    Продолжительность : 1 ч. 25 м.
    Общий поток : 2383 Кбит/сек
    Программа кодирования : VirtualDubMod 1.5.10.2 (build 2540/release)
    Библиотека кодирования : VirtualDubMod build 2540/release
    Видео
    Идентификатор : 0
    Формат : MPEG-4 Visual
    Профиль формата : Advanced Simple@L5
    Настройки формата : BVOP1/Custom Matrix
    Параметр BVOP формата : 1
    Параметр QPel формата : Нет
    Параметр GMC формата : Без точки перехода
    Параметр матрицы формата : Выборочная
    Идентификатор кодека : XVID
    Идентификатор кодека/Подсказка : XviD
    Продолжительность : 1 ч. 25 м.
    Битрейт : 1990 Кбит/сек
    Ширина : 720 пикселей
    Высота : 304 пикселя
    Соотношение сторон : 2, 35: 1
    Частота кадров : 23, 976 (24000/1001) кадра/сек
    Цветовое пространство : YUV
    Субдискретизация насыщенности : 4: 2: 0
    Битовая глубина : 8 бит
    Тип развёртки : Прогрессивная
    Метод сжатия : С потерями
    Бит/(Пиксели*Кадры) : 0.379
    Размер потока : 1, 19 Гбайт (83%)
    Библиотека кодирования : XviD 73
    Аудио
    Идентификатор : 1
    Формат : AC-3
    Формат/Информация : Audio Coding 3
    Идентификатор кодека : 2000
    Продолжительность : 1 ч. 25 м.
    Вид битрейта : Постоянный
    Битрейт : 384 Кбит/сек
    Каналы : 6 каналов
    Расположение каналов : Front: L C R, Side: L R, LFE
    Частота : 48, 0 КГц
    Частота кадров : 31, 250 кадров/сек (1536 SPF)
    Битовая глубина : 16 бит
    Метод сжатия : С потерями
    Размер потока : 235 Мбайт (16%)
    Выравнивание : Разделение по промежуткам
    Продолжительность промежутка : 42 мс. (1, 00 видеокадр)
    Время предзагрузки промежутка : 500 мс.
    ServiceKind/String : Complete Main

    Скриншоты для ознакомления



    Все одноименные релизы в Клубе
    Время раздачи: с 10.00 до 21.00 (до появления первых 3-5 скачавших)


    Онлайн видео Я заберу твои деньги



    Я заберу твои деньги/Blood Money (2017) BDRip
    Рейтинг →
     (голосов: 1, оценка 3/5, голосовать можно 1 раз )

    Другие торренты по теме:

  • Я заберу твои деньги / Blood Money (2017) WEB-DLRip [MVO, AD]
  • Я заберу твои деньги / Blood Money (2017) WEB-DLRip [H.264 / 1080p-LQ] [MVO, AD]
  • Я заберу твои деньги / Blood Money (2017) BDRemux [H.264 / 1080p] [EN / EN, Sp Sub]
  • Я заберу твои деньги / Blood Money (2017) BDRip [MVO]
  • Я заберу твои деньги / Blood Money (2017) BDRip [H.264 / 720p]
  • Я заберу твои деньги / Blood Money (2017) BDRip [H.264]


    • Комментарии (0):

      Информация

      Информация

        Посетители, находящиеся в группе Гости, не могут оставлять комментарии в данной новости.

        ↓ Меню




        ↓ Опрос

        Вы добавили сайт в закладки?
        Да
        Нет


        Top 10 за месяц (Фильмы)