.
Авторизация | Регистрация
Хочешь лучшие торренты? Добавь свой email!
Добавить

Торрент скачать бесплатно

  • support: webmaster@btracker.org
» » Роман Израэл, Esq. / Roman J. Israel, Esq. (2017) BDRip [H.264 / 1080p] [PR] торрент скачать бесплатно


    Роман Израэл, Esq. / Roman J. Israel, Esq. (2017) BDRip [H.264 / 1080p] [PR] торрент скачать бесплатно

    Опубликовал: Админ | Дата: 29-05-2018, 05:00 | .torrent скачали: 0

    Роман Израэл, Esq. / Roman J. Israel, Esq. (2017) BDRip [H.264 / 1080p] [PR]Производство: США, Bron Studios
    Жанр: Драма, Криминал
    Режиссер: Дэн Гилрой
    Продюсер: Тодд Блэк, Майкл Блум, Джейсон Клот

    Актеры
    Дензел Вашингтон, Колин Фаррелл, Кармен Эджого, Линда Граватт, Аманда Уоррен, Хьюго Армстронг, Сэм Гилрой, Тони Плана, Дерон Хортон, Амари Читом

    Описание

    История опытного адвоката-идеалиста с твёрдой хваткой, Романа Дж. Израэля. Череда событий вынуждает героя пойти на крайние меры, противоречащие его профессиональным и моральным принципам.

    Рейтинг MPAA: PG-13 (детям до 13 лет просмотр нежелателен)
    Дата мировой премьеры: 0 сентября 2017
    Продолжительность: 02: 02: 20
    Качество видео: BDRip
    Перевод: Многоголосый закадровый, профессиональный (Лицензия)
    Субтитры: Русские (forced, full), украинские (full), английские
    Видео: AVC/H.264, 1920x1036, ~12.8 Mbps
    Аудио 1: AC3, 6 ch, 640 Kbps - Русский
    Аудио 2: DTS, 6 ch, 1509 Kbps - Английский

    Roman.J.Israel.Esq.2017.Lic.BDRip.1080p.mkv
    Format : Matroska
    Format version : Version 4/Version 2
    File size : 12.8 GiB
    Duration : 2 h 2 min
    Overall bit rate : 15.0 Mb/s
    Movie name : Roman J. Israel, Esq. 2017 from ExKinoRay
    Encoded date : UTC 2018-05-27 06: 31: 37
    Writing application : mkvmerge v7.3.0 (\'Nouages\') 64bit built on Oct 22 2014 18: 53: 34
    Writing library : libebml v1.3.0 + libmatroska v1.4.1
    Video
    ID : 1
    Format : AVC
    Format/Info : Advanced Video Codec
    Format profile : High@L4.1
    Format settings : CABAC/4 Ref Frames
    Format settings, CABAC : Yes
    Format settings, ReFrames : 4 frames
    Codec ID : V_MPEG4/ISO/AVC
    Duration : 2 h 2 min
    Bit rate : 12.8 Mb/s
    Width : 1 920 pixels
    Height : 1 036 pixels
    Display aspect ratio : 1.85: 1
    Frame rate mode : Constant
    Frame rate : 23.976 (24000/1001) FPS
    Color space : YUV
    Chroma subsampling : 4: 2: 0
    Bit depth : 8 bits
    Scan type : Progressive
    Bits/(Pixel*Frame) : 0.269
    Stream size : 10.9 GiB (86%)
    Writing library : x264 core 149 r2771+45 509cceb 7mod 8-bit@all X86_64
    Encoding settings : cabac=1/ref=4/deblock=1: -3: -3/analyse=0x3: 0x113/me=umh/subme=10/psy=1/fade_compensate=0.00/psy_rd=0.90: 0.10/mixed_ref=1/me_range=48/chroma_me=1/trellis=2/8x8dct=1/cqm=0/deadzone=21, 11/fast_pskip=0/chroma_qp_offset=-2/threads=12/lookahead_threads=2/sliced_threads=0/nr=0/decimate=1/interlaced=0/bluray_compat=0/constrained_intra=0/fgo=0/bframes=8/b_pyramid=2/b_adapt=2/b_bias=0/direct=3/weightb=1/open_gop=0/weightp=2/keyint=250/keyint_min=23/scenecut=40/intra_refresh=0/rc_lookahead=40/rc=crf/mbtree=0/crf=21.5000/qcomp=0.70/qpmin=0: 0: 0/qpmax=69: 69: 69/qpstep=4/vbv_maxrate=35000/vbv_bufsize=35000/crf_max=0.0/nal_hrd=none/filler=0/ip_ratio=1.40/pb_ratio=1.30/aq=3: 1.00/aq-sensitivity=10.00/aq-factor=1.00: 1.00: 1.00/aq2=0/aq3=2: 0.50: 0.50: 0.50: 0.50: 0.50: 0.50: 0.50: 0.50/aq3-sensitivity=10.00/aq3-factor=1.00: 1.00: 1.00: 1.00: 1.00: 1.00/aq3-boundary=192: 64: 24
    Language : English
    Default : Yes
    Forced : No
    Color range : Limited
    Matrix coefficients : BT.709
    Audio #1
    ID : 2
    Format : AC-3
    Format/Info : Audio Coding 3
    Codec ID : A_AC3
    Duration : 2 h 2 min
    Bit rate mode : Constant
    Bit rate : 640 kb/s
    Channel(s) : 6 channels
    Channel positions : Front: L C R, Side: L R, LFE
    Sampling rate : 48.0 kHz
    Frame rate : 31.250 FPS (1536 SPF)
    Bit depth : 16 bits
    Compression mode : Lossy
    Stream size : 560 MiB (4%)
    Title : License
    Language : Russian
    Service kind : Complete Main
    Default : Yes
    Forced : Yes
    Audio #2
    ID : 3
    Format : DTS
    Format/Info : Digital Theater Systems
    Codec ID : A_DTS
    Duration : 2 h 2 min
    Bit rate mode : Constant
    Bit rate : 1 509 kb/s
    Channel(s) : 6 channels
    Channel positions : Front: L C R, Side: L R, LFE
    Sampling rate : 48.0 kHz
    Frame rate : 93.750 FPS (512 SPF)
    Bit depth : 24 bits
    Compression mode : Lossy
    Stream size : 1.29 GiB (10%)
    Title : Original
    Language : English
    Default : No
    Forced : No
    Text #1
    ID : 4
    Format : UTF-8
    Codec ID : S_TEXT/UTF8
    Codec ID/Info : UTF-8 Plain Text
    Duration : 2 h 1 min
    Bit rate : 2 b/s
    Count of elements : 38
    Stream size : 2.63 KiB (0%)
    Title : Forced
    Language : Russian
    Default : Yes
    Forced : Yes
    Text #2
    ID : 5
    Format : UTF-8
    Codec ID : S_TEXT/UTF8
    Codec ID/Info : UTF-8 Plain Text
    Duration : 2 h 1 min
    Bit rate : 107 b/s
    Count of elements : 1579
    Stream size : 95.0 KiB (0%)
    Title : Full
    Language : Russian
    Default : No
    Forced : No
    Text #3
    ID : 6
    Format : UTF-8
    Codec ID : S_TEXT/UTF8
    Codec ID/Info : UTF-8 Plain Text
    Duration : 2 h 1 min
    Bit rate : 91 b/s
    Count of elements : 1578
    Stream size : 81.2 KiB (0%)
    Title : Full
    Language : Ukrainian
    Default : No
    Forced : No
    Text #4
    ID : 7
    Format : UTF-8
    Codec ID : S_TEXT/UTF8
    Codec ID/Info : UTF-8 Plain Text
    Duration : 1 h 51 min
    Bit rate : 70 b/s
    Count of elements : 1517
    Stream size : 57.8 KiB (0%)
    Title : Full
    Language : English
    Default : No
    Forced : No
    Text #5
    ID : 8
    Format : UTF-8
    Codec ID : S_TEXT/UTF8
    Codec ID/Info : UTF-8 Plain Text
    Duration : 1 h 56 min
    Bit rate : 76 b/s
    Count of elements : 1819
    Stream size : 65.1 KiB (0%)
    Title : SDH
    Language : English
    Default : No
    Forced : No
    Text #6
    ID : 9
    Format : UTF-8
    Codec ID : S_TEXT/UTF8
    Codec ID/Info : UTF-8 Plain Text
    Duration : 1 h 56 min
    Bit rate : 113 b/s
    Count of elements : 1818
    Stream size : 97.0 KiB (0%)
    Title : SDH Colored
    Language : English
    Default : No
    Forced : No
    Menu
    00: 00: 00.000 : en: Chapter 1
    00: 11: 42.327 : en: Chapter 2
    00: 24: 00.397 : en: Chapter 3
    00: 29: 22.719 : en: Chapter 4
    00: 43: 31.359 : en: Chapter 5
    00: 50: 22.561 : en: Chapter 6
    00: 54: 07.286 : en: Chapter 7
    01: 02: 18.902 : en: Chapter 8
    01: 07: 25.124 : en: Chapter 9
    01: 11: 39.629 : en: Chapter 10
    01: 15: 10.381 : en: Chapter 11
    01: 20: 32.411 : en: Chapter 12
    01: 25: 34.963 : en: Chapter 13
    01: 31: 17.639 : en: Chapter 14
    01: 40: 01.746 : en: Chapter 15
    01: 51: 26.221 : en: Chapter 16

    Скриншоты для ознакомления



    Все одноименные релизы в Клубе
    Время раздачи: 24/7 (до появления первых 3-5 скачавших)


    Онлайн видео Роман Израэл, Esq.



    Роман Израэл, Esq./Roman J. Israel, Esq. (2017) BDRip [H.264/1080p] [PR]
    Рейтинг →
     (голосов: 1, оценка 5/5, голосовать можно 1 раз )

    Другие торренты по теме:

  • Роман Израэл, Esq. / Roman J. Israel, Esq. (2017) WEB-DL [H.264 / 1080p-LQ] [EN / EN Sub]
  • Роман Израэл, Esq. / Roman J. Israel, Esq. (2017) BDRemux [H.264 / 1080p] [EN / En, Ch, Fr, Ko, Sp, Th Sub]
  • Роман Израэл, Esq. / Roman J. Israel, Esq. (2017) BDRip [H.264 / 1080p] [EN]
  • Роман Израэл, Esq. / Roman J. Israel, Esq. (2017) BDRip
  • Роман Израэл, Esq. / Roman J. Israel, Esq. (2017) BDRip [H.264 / 1080p]
  • Роман Израэл, Esq. / Roman J. Israel, Esq. (2017) BDRip [H.264 / 720p]
  • Роман Израэл, Esq. / Roman J. Israel, Esq. (2017) BDRip [H.264]
  • Роман Израэл, Esq. / Roman J. Israel, Esq. (2017) BDRip [720p] ATV


    • Комментарии (0):

      Информация

      Информация

        Посетители, находящиеся в группе Гости, не могут оставлять комментарии в данной новости.

        ↓ Меню




        ↓ Опрос

        Вы добавили сайт в закладки?
        Да
        Нет


        Top 10 за месяц (Фильмы)