.
Авторизация | Регистрация
Хочешь лучшие торренты? Добавь свой email!
Добавить

Торрент скачать бесплатно

  • support: webmaster@btracker.org
» » Редкая бабочка / The Butterfly Tree (2017) BDRip [H.264 / 720p] торрент скачать бесплатно


    Редкая бабочка / The Butterfly Tree (2017) BDRip [H.264 / 720p] торрент скачать бесплатно

    Опубликовал: Админ | Дата: 29-05-2018, 05:00 | .torrent скачали: 2

    Редкая бабочка / The Butterfly Tree (2017) BDRip [H.264 / 720p]Производство: Австралия | Midwinter Films, Film Victoria, Vendetta Productions
    Жанр: Драма, комедия, семейный
    Режиссер: Присцилла Камерон
    Продюсер: Фил Бремнер, Бриджет Кэллоу, Саймон Кэллоу-Райт

    Актеры
    Мелисса Джордж, Ивен Лесли, Эд Оксенбульд, Софи Лоу, Элла Джаз Макроканис, Лорен Диллон, Паула Назарски, Стив Нейшн, Лайам Хоп Йек Доддс, Тэмми Сара Линде

    Описание

    Одинокий отец и его сын-подросток влюбляются в новую соседку, Эвелин, королеву бурлеска.

    Возраст: 18+ (зрителям, достигшим 18 лет. запрещено для детей)
    Дата мировой премьеры: 11 августа 2017
    Дата российской премьеры: 10 мая 2018, Кинологистика
    Цифровой релиз: 26 марта 2018, НД Плэй
    Продолжительность: 01: 36: 04
    Качество видео: BDRip
    Перевод: Многоголосый закадровый (iTunes)
    Субтитры: Отсутствуют
    Видео: AVC/H.264, 1280x572 (2.25: 1), ~5500 Kbps, 23.976 fps
    Аудио 1: AC3, 6 ch, 48.0 kHz, 384 kbps CBR - Русский
    Аудио 1: AC3, 6 ch, 48.0 kHz, 640 kbps CBR - Английский

    General
    Unique ID : 254007046276725230814198677249951290410 (0xBF17FA47557ED2F09F4194CCD504542A)
    Complete name : D: The_Butterfly_Tree_2017_BDRip_720p_Dub.mkv
    Format : Matroska
    Format version : Version 4/Version 2
    File size : 4.38 GiB
    Duration : 1 h 36 min
    Overall bit rate : 6 523 kb/s
    Movie name : The Butterfly Tree 2017 from ExKinoRay
    Encoded date : UTC 2018-05-27 20: 49: 41
    Writing application : mkvmerge v7.3.0 (\'Nouages\') 64bit built on Oct 22 2014 18: 53: 34
    Writing library : libebml v1.3.0 + libmatroska v1.4.1
    Video
    ID : 1
    Format : AVC
    Format/Info : Advanced Video Codec
    Format profile : High@L4.1
    Format settings, CABAC : Yes
    Format settings, ReFrames : 12 frames
    Codec ID : V_MPEG4/ISO/AVC
    Duration : 1 h 36 min
    Bit rate : 5 500 kb/s
    Width : 1 280 pixels
    Height : 572 pixels
    Display aspect ratio : 2.25: 1
    Frame rate mode : Constant
    Frame rate : 23.976 (24000/1001) FPS
    Color space : YUV
    Chroma subsampling : 4: 2: 0
    Bit depth : 8 bits
    Scan type : Progressive
    Bits/(Pixel*Frame) : 0.313
    Stream size : 3.69 GiB (84%)
    Writing library : x264 core 148 r2705 3f5ed56
    Encoding settings : cabac=1/ref=12/deblock=1: -2: -2/analyse=0x3: 0x133/me=umh/subme=11/psy=1/psy_rd=1.05: 0.05/mixed_ref=1/me_range=32/chroma_me=1/trellis=2/8x8dct=1/cqm=0/deadzone=21, 11/fast_pskip=0/chroma_qp_offset=-3/threads=12/lookahead_threads=2/sliced_threads=0/nr=0/decimate=0/interlaced=0/bluray_compat=0/constrained_intra=0/bframes=8/b_pyramid=2/b_adapt=2/b_bias=0/direct=3/weightb=1/open_gop=0/weightp=2/keyint=240/keyint_min=23/scenecut=40/intra_refresh=0/rc_lookahead=50/rc=2pass/mbtree=0/bitrate=5500/ratetol=1.0/qcomp=0.60/qpmin=0/qpmax=51/qpstep=4/cplxblur=20.0/qblur=0.5/vbv_maxrate=50000/vbv_bufsize=62500/nal_hrd=none/filler=0/ip_ratio=1.40/pb_ratio=1.30/aq=3: 0.80
    Language : English
    Default : Yes
    Forced : No
    Audio #1
    ID : 2
    Format : AC-3
    Format/Info : Audio Coding 3
    Format settings, Endianness : Big
    Codec ID : A_AC3
    Duration : 1 h 36 min
    Bit rate mode : Constant
    Bit rate : 384 kb/s
    Channel(s) : 6 channels
    Channel positions : Front: L C R, Side: L R, LFE
    Sampling rate : 48.0 kHz
    Frame rate : 31.250 FPS (1536 spf)
    Bit depth : 16 bits
    Compression mode : Lossy
    Stream size : 264 MiB (6%)
    Title : iTunes
    Language : Russian
    Service kind : Complete Main
    Default : Yes
    Forced : Yes
    Audio #2
    ID : 3
    Format : AC-3
    Format/Info : Audio Coding 3
    Format settings, Endianness : Big
    Codec ID : A_AC3
    Duration : 1 h 36 min
    Bit rate mode : Constant
    Bit rate : 640 kb/s
    Channel(s) : 6 channels
    Channel positions : Front: L C R, Side: L R, LFE
    Sampling rate : 48.0 kHz
    Frame rate : 31.250 FPS (1536 spf)
    Bit depth : 16 bits
    Compression mode : Lossy
    Stream size : 440 MiB (10%)
    Title : Original
    Language : English
    Service kind : Complete Main
    Default : No
    Forced : No
    Menu
    00: 00: 00.000 : en: 00: 00: 00.000
    00: 08: 08.655 : en: 00: 08: 08.655
    00: 17: 10.154 : en: 00: 17: 10.154
    00: 27: 10.170 : en: 00: 27: 10.170
    00: 36: 00.200 : en: 00: 36: 00.200
    00: 47: 40.107 : en: 00: 47: 40.107
    00: 57: 01.418 : en: 00: 57: 01.418
    01: 05: 22.836 : en: 01: 05: 22.836
    01: 16: 23.370 : en: 01: 16: 23.370
    01: 23: 32.174 : en: 01: 23: 32.174

    Скриншоты для ознакомления



    Все одноименные релизы в Клубе
    Время раздачи: 24/7 (до появления первых 3-5 скачавших)


    Онлайн видео Редкая бабочка



    Редкая бабочка/The Butterfly Tree (2017) BDRip [H.264/720p]
    Рейтинг →
     (голосов: 1, оценка 4/5, голосовать можно 1 раз )

    Другие торренты по теме:

  • Редкая бабочка / The Butterfly Tree (2017) BDRip [1080p] ATV (MVO)
  • Редкая бабочка / The Butterfly Tree (2017) BDRip


    • Комментарии (0):

      Информация

      Информация

        Посетители, находящиеся в группе Гости, не могут оставлять комментарии в данной новости.

        ↓ Меню




        ↓ Опрос

        Вы добавили сайт в закладки?
        Да
        Нет


        Top 10 за месяц (Фильмы)