.
Авторизация | Регистрация
Хочешь лучшие торренты? Добавь свой email!
Добавить

Торрент скачать бесплатно

  • support: webmaster@btracker.org
» » Гоголь. Вий (2018) WEB-DLRip [H.264] торрент скачать бесплатно


    Гоголь. Вий (2018) WEB-DLRip [H.264] торрент скачать бесплатно

    Опубликовал: Админ | Дата: 24-05-2018, 05:00 | .torrent скачали: 84

    Гоголь. Вий (2018) WEB-DLRip [H.264]Производство: Россия, Продюсерский центр Среда
    Жанр: Детектив, Приключения, Драма
    Режиссер: Егор Баранов
    Продюсер: Александр Цекало, Артур Джанибекян, Валерий Федорович

    Актеры
    Александр Петров, Олег Меньшиков, Евгений Стычкин, Таисия Вилкова, Артем Ткаченко, Екатерина Бурлакова, Сергей Бадюк, Ян Цапник, Алексей Вертков, Марта Тимофеева

    Описание

    Писарь из Санкт-Петербурга Николай Гоголь бросает вызов загадочному тёмному Всаднику, который жестоко расправляется с девушками в окрестностях села Диканька. Собрав команду из местного полицейского, пьяницы-доктора, суеверного кузнеца и странствующего философа-экзорциста, Гоголь пытается заманить злодея в ловушку, но на его пути встает самое жуткое порождение нечистой силы — Вий, один взгляд которого способен высосать душу смертного. Неожиданно для себя Гоголь выясняет, что с потусторонними силами его связывают не только таинственные видения.

    Возраст: 16+ (зрителям, достигшим 16 лет)
    Дата российской премьеры: 5 апреля 2018, Каропрокат
    Продолжительность: 01: 39: 03
    Качество видео: WEB-DLRip AVC
    Перевод: Не требуется (русский) iTunes
    Субтитры: Отсутствуют
    Видео: AVC/H.264, 1024x428, ~1695 Kbps
    Аудио: AC3, 6 ch, 384 Kbps

    Общее
    Уникальный идентификатор : 192656630268799155711483820673427154192 (0x90F0513C02C3755A879871A05F39A510)
    Полное имя : D: ВидеоtorrrentGogol.Viy.2018. WEB.DLRip-AVC (Лиц).mkv
    Формат : Matroska
    Версия формата : Version 2
    Размер файла : 1, 44 Гбайт
    Продолжительность : 1 ч. 39 м.
    Общий поток : 2079 Кбит/сек
    Название фильма : Gogol Viy 2018 from ExKioRay
    Дата кодирования : UTC 2018-05-21 22: 40: 43
    Программа кодирования : mkvmerge v5.6.0 (\'Kenya Kane\') built on May 27 2012 16: 44: 04
    Библиотека кодирования : libebml v1.2.3 + libmatroska v1.3.0
    Видео
    Идентификатор : 1
    Формат : AVC
    Формат/Информация : Advanced Video Codec
    Профиль формата : High@L4.1
    Параметр CABAC формата : Да
    Параметр RefFrames формата : 12 кадров
    Идентификатор кодека : V_MPEG4/ISO/AVC
    Продолжительность : 1 ч. 39 м.
    Битрейт : 1695 Кбит/сек
    Ширина : 1024 пикселя
    Высота : 428 пикселей
    Соотношение сторон : 2, 40: 1
    Режим частоты кадров : Постоянный
    Частота кадров : 24, 000 кадра/сек
    Цветовое пространство : YUV
    Субдискретизация насыщенности : 4: 2: 0
    Битовая глубина : 8 бит
    Тип развёртки : Прогрессивная
    Бит/(Пиксели*Кадры) : 0.161
    Размер потока : 1, 14 Гбайт (80%)
    Заголовок : Enigma
    Библиотека кодирования : x264 core 152 r2851 ba24899
    Настройки программы : cabac=1/ref=12/deblock=1: -2: -2/analyse=0x3: 0x113/me=umh/subme=10/psy=1/psy_rd=1.05: 0.10/mixed_ref=1/me_range=32/chroma_me=1/trellis=2/8x8dct=1/cqm=0/deadzone=21, 11/fast_pskip=0/chroma_qp_offset=-3/threads=12/lookahead_threads=3/sliced_threads=0/nr=0/decimate=0/interlaced=0/bluray_compat=0/constrained_intra=0/bframes=10/b_pyramid=2/b_adapt=2/b_bias=0/direct=3/weightb=1/open_gop=0/weightp=2/keyint=240/keyint_min=24/scenecut=40/intra_refresh=0/rc_lookahead=40/rc=2pass/mbtree=0/bitrate=1695/ratetol=1.0/qcomp=0.60/qpmin=0/qpmax=51/qpstep=4/cplxblur=20.0/qblur=0.5/vbv_maxrate=50000/vbv_bufsize=62500/nal_hrd=none/filler=0/ip_ratio=1.40/pb_ratio=1.30/aq=1: 0.90
    Default : Да
    Forced : Нет
    Цветовой диапазон : Limited
    Основные цвета : BT.709
    Характеристики трансфера : BT.709
    Коэффициенты матрицы : BT.709
    Аудио
    Идентификатор : 2
    Формат : AC-3
    Формат/Информация : Audio Coding 3
    Параметр Endianness формата : Big
    Идентификатор кодека : A_AC3
    Продолжительность : 1 ч. 39 м.
    Вид битрейта : Постоянный
    Битрейт : 384 Кбит/сек
    Каналы : 6 каналов
    Расположение каналов : Front: L C R, Side: L R, LFE
    Частота : 48, 0 КГц
    Частота кадров : 31, 250 кадров/сек (1536 SPF)
    Битовая глубина : 16 бит
    Метод сжатия : С потерями
    Размер потока : 272 Мбайт (18%)
    Заголовок : iTunes
    Язык : Russian
    ServiceKind/String : Complete Main
    Default : Да
    Forced : Нет
    Меню
    00: 00: 00.000 : en: Р“Рава 1
    00: 07: 29.000 : en: Р“Рава 2
    00: 12: 22.790 : en: Р“Рава 3
    00: 20: 44.455 : en: Р“Рава 4
    00: 24: 45.205 : en: Р“Рава 5
    00: 30: 02.620 : en: Р“Рава 6
    00: 35: 28.369 : en: Р“Рава 7
    00: 41: 36.952 : en: Р“Рава 8
    00: 47: 22.660 : en: Р“Рава 9
    00: 52: 11.243 : en: Р“Рава 10
    00: 58: 36.493 : en: Р“Рава 11
    01: 05: 09.993 : en: Р“Рава 12
    01: 10: 35.076 : en: Р“Рава 13
    01: 15: 23.908 : en: Р“Рава 14
    01: 21: 01.408 : en: Р“Рава 15
    01: 27: 35.283 : en: Р“Рава 16

    Скриншоты для ознакомления



    Все одноименные релизы в Клубе
    Время раздачи: 24/7 (до появления первых 3-5 скачавших)


    Онлайн видео Гоголь. Вий (2018) WEB



    Гоголь. Вий (2018) WEB-DLRip [H.264]
    Рейтинг →
     (голосов: 1, оценка 4/5, голосовать можно 1 раз )

    Другие торренты по теме:

  • Гоголь. Начало (2017) WEB-DLRip
  • Гоголь. Начало (2017) WEB-DLRip [H.264]
  • Гоголь. Начало (2017) WEB-DLRip [H.264]
  • Гоголь. Начало (2017) WEB-DLRip [576p] iPad
  • Гоголь. Вий (2018) WEB-DLRip [AD]
  • Гоголь. Вий (2018) WEB-DLRip [H.264 / 1080p-LQ] [AD]
  • Гоголь. Вий (2018) WEB-DLRip [576p] iPad
  • Гоголь. Вий (2018) WEB-DLRip [480p] iPod


    • Комментарии (0):

      Информация

      Информация

        Посетители, находящиеся в группе Гости, не могут оставлять комментарии в данной новости.

        ↓ Меню




        ↓ Опрос

        Вы добавили сайт в закладки?
        Да
        Нет


        Top 10 за месяц (Фильмы)