.
Авторизация | Регистрация
Хочешь лучшие торренты? Добавь свой email!
Добавить

Торрент скачать бесплатно

  • support: webmaster@btracker.org
» » Бунтарь 2 / Baaghi 2 (2018) WEBRip [MVO] торрент скачать бесплатно


    Бунтарь 2 / Baaghi 2 (2018) WEBRip [MVO] торрент скачать бесплатно

    Опубликовал: Админ | Дата: 11-05-2018, 05:00 | .torrent скачали: 94

    Бунтарь 2 / Baaghi 2 (2018) WEBRip [MVO]Производство: Индия
    Жанр: Боевик, Триллер
    Режиссер: Ахмед Кхан
    Продюсер: Саджид Надиадвала, Vijay Singh, Бхарат Бохра

    Актеры
    Диша Патани, Тайгер Шрофф, Рандип Худа, Лакшми Манчу, Манодж Баджпаи, Пратик Баббар, Дипак Добриял, Парас Арора, Нил Бхаттачария, Випин Шарма

    Описание

    Главный герой индийского боевика Бунтарь — солдат Индийской армии, по имени Ронни. Внезапно, он получает звонок от своей бывшей возлюбленной — Нехи. С которой, он когда-то, во времена учебы встречался в колледже. Как выяснилось, средь бела дня, неизвестные жестоко избили Неху, и похитили её маленькую дочь. На протяжении 2-х месяцев, Неха безуспешно пыталась найти свою дочь. Но ни родные, ни полиция ничем не смогли ей помочь…. Теперь Ронни, ее единственная надежда! После чего, наш главный герой начинает собственное расследование…

    Мировая премьера: 23 марта 2018
    Продолжительность: 02: 23: 13
    Качество видео: WEBRip
    Перевод: любительский двухголосый
    Субтитры: отсутствуют
    Видео: Xvid, 720x304, ~1385 Kbps
    Аудио: AAC, 2 ch, 192 Kbps

    Общее
    Полное имя : E: ИндияBaaghi 2.2018.WebRip.avi
    Формат : AVI
    Формат/Информация : Audio Video Interleave
    Профиль формата : OpenDML
    Размер файла : 1, 59 Гбайт
    Продолжительность : 2 ч. 23 м.
    Режим общего битрейта : Переменный
    Общий поток : 1590 Кбит/сек
    Программа кодирования : Lavf57.71.100
    Видео
    Идентификатор : 0
    Формат : MPEG-4 Visual
    Профиль формата : Advanced Simple@L5
    Параметр BVOP формата : 1
    Параметр QPel формата : Нет
    Параметр GMC формата : Без точки перехода
    Параметр матрицы формата : Default (H.263)
    Идентификатор кодека : XVID
    Идентификатор кодека/Подсказка : XviD
    Продолжительность : 2 ч. 23 м.
    Битрейт : 1385 Кбит/сек
    Ширина : 720 пикселей
    Высота : 304 пикселя
    Соотношение сторон : 2, 35: 1
    Частота кадров : 15, 000 кадров/сек
    Цветовое пространство : YUV
    Субдискретизация насыщенности : 4: 2: 0
    Битовая глубина : 8 бит
    Тип развёртки : Прогрессивная
    Метод сжатия : С потерями
    Бит/(Пиксели*Кадры) : 0.422
    Размер потока : 1, 39 Гбайт (87%)
    Библиотека кодирования : XviD 67
    Аудио
    Идентификатор : 1
    Формат : AAC
    Формат/Информация : Advanced Audio Codec
    Версия формата : Version 4
    Профиль формата : LC
    Режим смешивания : ADTS
    Идентификатор кодека : FF
    Продолжительность : 2 ч. 23 м.
    Вид битрейта : Переменный
    Битрейт : 192 Кбит/сек
    Каналы : 2 канала
    Расположение каналов : Front: L R
    Частота : 44, 1 КГц
    Частота кадров : 43, 066 кадра/сек (1024 spf)
    Метод сжатия : С потерями
    Размер потока : 197 Мбайт (12%)
    Выравнивание : Соединение по промежуткам
    Продолжительность промежутка : 23 мс. (0, 35 видеокадр)

    Скриншоты для ознакомления



    Все одноименные релизы в Клубе
    Время раздачи: Пн-Пт с 18: 00 до 22: 00, Вс с 09: 00 до 22: 30 (до появления первых 3-5 скачавших)


    Онлайн видео Бунтарь 2



    Бунтарь 2/Baaghi 2 (2018) WEBRip [MVO]
    Рейтинг →
     (голосов: 1, оценка 4/5, голосовать можно 1 раз )

    Другие торренты по теме:

  • Ф. Фонер | Джек Лондон - американский бунтарь (1966) [DJVU]
  • А. Лазарев | Одинокий бунтарь: Брайан Джонс и юность «Rolling Stones» (2011) [FB2, EPUB]
  • Юрий Корчевский | Бунтарь. За вольную волю! (2018) [FB2]


    • Комментарии (0):

      Информация

      Информация

        Посетители, находящиеся в группе Гости, не могут оставлять комментарии в данной новости.

        ↓ Меню




        ↓ Опрос

        Вы добавили сайт в закладки?
        Да
        Нет


        Top 10 за месяц (Фильмы)