.
Авторизация | Регистрация
Хочешь лучшие торренты? Добавь свой email!
Добавить

Торрент скачать бесплатно

  • support: webmaster@btracker.org
» » Прислуга (2018) WEBRip (серии 1-12 из 12) [AD] торрент скачать бесплатно


    Прислуга (2018) WEBRip (серии 1-12 из 12) [AD] торрент скачать бесплатно

    Опубликовал: Админ | Дата: 22-04-2018, 05:00 | .torrent скачали: 62

    Прислуга (2018) WEBRip (серии 1-12 из 12) [AD]Производство: Украина/Sister\'s production по заказу телеканала 1+1
    Жанр: детектив, мелодрама
    Режиссер: Бата Недич

    Актеры
    Мишель Андраде, Антон Денисенко, Валерия Ходос, Олег Савкин, Лариса Руснак, Борис Хвошнянский, Ирина Мельник, Анна Сагайдачная, Людмила Загорская, Владимир Канивец и др.

    Описание

    В одном из домов фешенебельного коттеджного городка происходит убийство сотрудницы из обслуживания Лары, в котором обвиняют молодого человека Антона, но полиция не спешит с расследованием Его жена Марта специально устроилась работать в тот же жилой комплекс, чтобы доказать невиновность любимого...
    Дата мировой премьеры: 10 апреля 2018 (Канал 1+1)
    Продолжительность: ~00: 46: 00 серия
    Качество видео: WEBRip
    Язык озвучки: русский
    Реклама: присутствуют текстовые вставки рекламы
    Видео: Xvid, 720x400 (16: 9), ~2155 Kbps
    Аудио: AC3, 2 ch, ~ 192 Kbps

    Общее
    Полное имя : D: Мои фильмыPrisluga_1-12iz12_2018_XviD_WEBRipPrisluga_S1_01.avi
    Формат : AVI
    Формат/Информация : Audio Video Interleave
    Размер файла : 745 Мбайт
    Продолжительность : 44 м. 13 с.
    Общий поток : 2357 Кбит/сек
    Библиотека кодирования : VirtualDub build 40716/release
    Видео
    Идентификатор : 0
    Формат : MPEG-4 Visual
    Профиль формата : Advanced Simple@L5
    Настройки формата : BVOP2
    Параметр BVOP формата : 2
    Параметр QPel формата : Нет
    Параметр GMC формата : Без точки перехода
    Параметр матрицы формата : Default (H.263)
    Идентификатор кодека : XVID
    Идентификатор кодека/Подсказка : XviD
    Продолжительность : 44 м. 13 с.
    Битрейт : 2155 Кбит/сек
    Ширина : 720 пикселей
    Высота : 400 пикселей
    Соотношение сторон : 16: 9
    Частота кадров : 25, 000 кадров/сек
    Цветовое пространство : YUV
    Субдискретизация насыщенности : 4: 2: 0
    Битовая глубина : 8 бит
    Тип развёртки : Прогрессивная
    Метод сжатия : С потерями
    Бит/(Пиксели*Кадры) : 0.299
    Размер потока : 682 Мбайт (91%)
    Библиотека кодирования : XviD 67
    Аудио
    Идентификатор : 1
    Формат : AC-3
    Формат/Информация : Audio Coding 3
    Идентификатор кодека : 2000
    Продолжительность : 44 м. 13 с.
    Вид битрейта : Постоянный
    Битрейт : 192 Кбит/сек
    Каналы : 2 канала
    Расположение каналов : Front: L R
    Частота : 48, 0 КГц
    Частота кадров : 31, 250 кадров/сек (1536 SPF)
    Битовая глубина : 16 бит
    Метод сжатия : С потерями
    Размер потока : 60, 7 Мбайт (8%)
    Выравнивание : Соединение по промежуткам
    Продолжительность промежутка : 40 мс. (1, 00 видеокадр)
    Время предзагрузки промежутка : 512 мс.
    ServiceKind/String : Complete Main


    Онлайн видео Прислуга (2018) WEBRip (серии 1



    Прислуга (2018) WEBRip (серии 1-12 из 12) [AD]
    Рейтинг →
     (голосов: 1, оценка 3/5, голосовать можно 1 раз )

    Другие торренты по теме:



      Комментарии (0):

      Информация

      Информация

        Посетители, находящиеся в группе Гости, не могут оставлять комментарии в данной новости.

        ↓ Меню




        ↓ Опрос

        Вы добавили сайт в закладки?
        Да
        Нет


        Top 10 за месяц (Фильмы)