.
Авторизация | Регистрация
Хочешь лучшие торренты? Добавь свой email!
Добавить

Торрент скачать бесплатно

  • support: webmaster@btracker.org
» » Погружение / Submergence (2017) WEB-DLRip торрент скачать бесплатно


    Погружение / Submergence (2017) WEB-DLRip торрент скачать бесплатно

    Опубликовал: Админ | Дата: 14-04-2018, 05:00 | .torrent скачали: 48

    Погружение / Submergence (2017) WEB-DLRipПроизводство: Германия, Франция, Испания, США/Backup Media, Green Hummingbird Entertainment, Lila 9th Productions, Morena Films S.L., Palm-Star Entertainment
    Жанр: Триллер, драма, мелодрама
    Режиссер: Вим Вендерс

    Актеры
    Джеймс МакЭвой, Алисия Викандер, Александр Сиддиг, Селин Джонс, Реда Катеб, Мохамед Хакимшади, Клементин Баэрт, Адама Барри, Жюльен Буаниш, Лоик Корбери

    Описание

    Он — офицер разведки, она — ученый-океанолог. Ему предстояла смертельно опасная спецоперация в Сомали, ей — глубоководная экспедиция. И теперь, в минуту испытаний пред лицом смерти — в плену у боевиков, в батискафе на глубине океана — все, что у них есть, — это их любовь…

    Возраст: 16+ (зрителям, достигшим 16 лет)
    Дата мировой премьеры: 10 сентября 2017
    Дата премьеры в России: 1 марта 2018

    Продолжительность: 01: 46: 43
    Качество видео: WEB-DLRip
    Перевод: Дублированный (iTunes)
    Субтитры: Отсутствуют
    Видео: XviD, 720x384, ~1561 Kbps
    Аудио: AC-3, 6 ch, 384 Kbps

    Общее
    Полное имя : E: NNMПогружениеSubmergence 2017 WEB-DLRip.avi
    Формат : AVI
    Формат/Информация : Audio Video Interleave
    Размер файла : 1, 46 Гбайт
    Продолжительность : 1 ч. 46 м.
    Общий поток : 1954 Кбит/сек
    Программа кодирования : VirtualDubMod 1.5.10.2 (build 2540/release)
    Библиотека кодирования : VirtualDubMod build 2540/release
    Видео
    Идентификатор : 0
    Формат : MPEG-4 Visual
    Профиль формата : Advanced Simple@L5
    Настройки формата : BVOP2/Custom Matrix
    Параметр BVOP формата : 2
    Параметр QPel формата : Нет
    Параметр GMC формата : Без точки перехода
    Параметр матрицы формата : Выборочная
    Идентификатор кодека : XVID
    Идентификатор кодека/Подсказка : XviD
    Продолжительность : 1 ч. 46 м.
    Битрейт : 1561 Кбит/сек
    Ширина : 720 пикселей
    Высота : 384 пикселя
    Соотношение сторон : 1, 85: 1
    Частота кадров : 25, 000 кадров/сек
    Цветовое пространство : YUV
    Субдискретизация насыщенности : 4: 2: 0
    Битовая глубина : 8 бит
    Тип развёртки : Прогрессивная
    Метод сжатия : С потерями
    Бит/(Пиксели*Кадры) : 0.226
    Размер потока : 1, 16 Гбайт (80%)
    Библиотека кодирования : XviD 1.2.1 (UTC 2008-12-04)
    Аудио
    Идентификатор : 1
    Формат : AC-3
    Формат/Информация : Audio Coding 3
    Идентификатор кодека : 2000
    Продолжительность : 1 ч. 46 м.
    Вид битрейта : Постоянный
    Битрейт : 384 Кбит/сек
    Каналы : 6 каналов
    Расположение каналов : Front: L C R, Side: L R, LFE
    Частота : 48, 0 КГц
    Частота кадров : 31, 250 кадров/сек (1536 SPF)
    Битовая глубина : 16 бит
    Метод сжатия : С потерями
    Размер потока : 293 Мбайт (20%)
    Выравнивание : Разделение по промежуткам
    Продолжительность промежутка : 40 мс. (1, 00 видеокадр)
    Время предзагрузки промежутка : 500 мс.
    ServiceKind/String : Complete Main

    Скриншоты для ознакомления



    Все одноименные релизы в Клубе Время раздачи: 24/7 (до появления первых 3-5 скачавших)


    Онлайн видео Погружение



    Погружение/Submergence (2017) WEB-DLRip
    Рейтинг →
     (голосов: 1, оценка 4/5, голосовать можно 1 раз )

    Другие торренты по теме:

  • Погружение / Submergence (2017) WEB-DL [H.264 / 1080p]
  • Погружение / Submergence (2017) WEB-DL [1080p] ATV
  • Погружение / Submergence (2017) WEB-DL [H.264 / 720p-LQ]
  • Погружение / Submergence (2017) WEB-DLRip [H.264]
  • Погружение / Submergence (2017) WEB-DL [H.264 / 1080p-LQ]
  • Погружение / Submergence (2017) WEB-DLRip [576p] iPad
  • Погружение / Submergence (2017) WEB-DL [720p] ATV
  • Погружение / Submergence (2017) BDRemux [H.264 / 1080p] [EN / EN Sub]


    • Комментарии (0):

      Информация

      Информация

        Посетители, находящиеся в группе Гости, не могут оставлять комментарии в данной новости.

        ↓ Меню




        ↓ Опрос

        Вы добавили сайт в закладки?
        Да
        Нет


        Top 10 за месяц (Фильмы)