.
Авторизация | Регистрация
Хочешь лучшие торренты? Добавь свой email!
Добавить

Торрент скачать бесплатно

» » Миллиарды / Billions (2018) WEBRip (сезон 3, серии 1 из 12) NewStudio (обновляемая) торрент скачать бесплатно


    Миллиарды / Billions (2018) WEBRip (сезон 3, серии 1 из 12) NewStudio (обновляемая) торрент скачать бесплатно

    Опубликовал: Админ | Дата: 4-04-2018, 05:00 | .torrent скачали: 2

    Миллиарды / Billions (2018) WEBRip (сезон 3, серии 1 из 12) NewStudio (обновляемая)Производство: США/Showtime Entertainment
    Жанр: драма
    Режиссер: Нил Бёргер, Колин Бакси

    Актеры
    Дэмиэн Льюис, Пол Джаматти, Мэгги Сифф, Малин Акерман, Дэниэл К. Исаак, Келли АуКойн, Тоби Леонард Мур, Дэвид Костабайл, Джек Гор, Кондола Рашад и др.

    Описание

    Сериал продолжает рассказ о мире больших денег и противостоянии главного героя — амбициозного короля хедж-фондов Бобби Аксельрода с федеральным прокурором Чаком Родсом.

    Продолжительность: ~00: 57: 00 серия
    Качество видео: WEBRip
    Перевод: Многоголосый закадровый, профессиональный -NewStudio
    Субтитры: русские (форсированные, на надписи)
    Внимание! Присутствует ненормативная лексика.
    Видео: XviD, 720x400 (16: 9), ~1504 kbps
    Аудио 1: MP3, 48, 0 kHz, 2 ch, 128 kbps — русский, многоголосый закадровый
    Аудио 2: MP3, 48, 0 kHz, 2 ch, 128 kbps — английский

    Общее
    Полное имя : D: Миллиарды (сезон любимого сериала 3) Billions (2018) WEBRip - NewStudioBillions.S03E01.WEBRip.Rus.Eng.DV.NewStudio.avi
    Формат : AVI
    Формат/Информация : Audio Video Interleave
    Размер файла : 749 Мбайт
    Продолжительность : 59 м. 2 с.
    Общий поток : 1774 Кбит/сек
    Название фильма : Billions.S03E01.WEBRip.Rus.Eng.DV.NewStudio/NNM-Club
    Программа кодирования : VirtualDubModRus 1.5.10.2 (build 2542/release)
    Библиотека кодирования : VirtualDubMod build 2542/release
    Видео
    Идентификатор : 0
    Формат : MPEG-4 Visual
    Профиль формата : Advanced Simple@L5
    Настройки формата : BVOP2
    Параметр BVOP формата : 2
    Параметр QPel формата : Нет
    Параметр GMC формата : Без точки перехода
    Параметр матрицы формата : Default (H.263)
    Идентификатор кодека : XVID
    Идентификатор кодека/Подсказка : XviD
    Продолжительность : 59 м. 2 с.
    Битрейт : 1504 Кбит/сек
    Ширина : 720 пикселей
    Высота : 400 пикселей
    Соотношение сторон : 16: 9
    Частота кадров : 23, 976 (24000/1001) кадра/сек
    Цветовое пространство : YUV
    Субдискретизация насыщенности : 4: 2: 0
    Битовая глубина : 8 бит
    Тип развёртки : Прогрессивная
    Метод сжатия : С потерями
    Бит/(Пиксели*Кадры) : 0.218
    Размер потока : 635 Мбайт (85%)
    Заголовок : Rip by DriverV/NNM-Club
    Библиотека кодирования : XviD 67
    Аудио #1
    Идентификатор : 1
    Формат : MPEG Audio
    Версия формата : Version 1
    Профиль формата : Layer 3
    Настройки формата : Joint stereo/MS Stereo
    Идентификатор кодека : 55
    Идентификатор кодека/Подсказка : MP3
    Продолжительность : 59 м. 2 с.
    Вид битрейта : Постоянный
    Битрейт : 128 Кбит/сек
    Каналы : 2 канала
    Частота : 48, 0 КГц
    Метод сжатия : С потерями
    Размер потока : 54, 1 Мбайт (7%)
    Выравнивание : Соединение по промежуткам
    Продолжительность промежутка : 42 мс. (1, 00 видеокадр)
    Время предзагрузки промежутка : 504 мс.
    Аудио #2
    Идентификатор : 2
    Формат : MPEG Audio
    Версия формата : Version 1
    Профиль формата : Layer 3
    Настройки формата : Joint stereo/MS Stereo
    Идентификатор кодека : 55
    Идентификатор кодека/Подсказка : MP3
    Продолжительность : 59 м. 2 с.
    Вид битрейта : Постоянный
    Битрейт : 128 Кбит/сек
    Каналы : 2 канала
    Частота : 48, 0 КГц
    Метод сжатия : С потерями
    Размер потока : 54, 1 Мбайт (7%)
    Выравнивание : Соединение по промежуткам
    Продолжительность промежутка : 42 мс. (1, 00 видеокадр)
    Время предзагрузки промежутка : 504 мс.


    Онлайн видео Миллиарды



    Миллиарды/Billions (2018) WEBRip (сезон 3, серии 1 из 12) NewStudio (обновляемая)
    Рейтинг →
     (голосов: 1, оценка 3/5, голосовать можно 1 раз )

    Другие торренты по теме:

  • Миллиарды / Billions (2016) HDTVRip (сезон 1, серии 1 из 12) BaibaKo (обновляемая) скачать через торрент бесплатно
  • Миллиарды / Billions (2016) HDTVRip (сезон 1, серии 1 из 12) NewStudio (обновляемая)
  • Миллиарды / Billions (2016) HDTV [H.264 / 1080p-LQ] (сезон 1, серии 1-2 из 12) BaibaKo (обновляемая)
  • Миллиарды / Billions (2016) HDTV [H.264 / 720p-LQ] (сезон 1, серии 1-4 из 12) BaibaKo (обновляемая)
  • Миллиарды / Billions (2016) HDTVRip (сезон 1, серии 1-5 из 12) AlexFilm (обновляемая)
  • Миллиарды / Billions (2016) HDTV [H.264 / 720p] (сезон 1, серии 1-6 из 12) IdeaFilm (обновляемая)
  • Миллиарды / Billions (2016) HDTVRip (сезон 1, серии 1-9 из 12) BaibaKo (обновляемая)
  • Миллиарды / Billions (2016) HDTVRip [H.264] (сезон 1, серии 1-12 из 12) LostFilm [MP4|1280x720]


    • Комментарии (0):

      Информация

      Информация

        Посетители, находящиеся в группе Гости, не могут оставлять комментарии в данной новости.

        ↓ Меню




        ↓ Опрос

        Вы добавили сайт в закладки?
        Да
        Нет


        Top 10 за месяц (Фильмы)